<?xml version="1.0" standalone="no"?>
<!DOCTYPE svg PUBLIC "-//W3C//DTD SVG 1.1//EN" "http://www.w3.org/Graphics/SVG/1.1/DTD/svg11.dtd" >
<svg xmlns="http://www.w3.org/2000/svg">
<metadata>Generated by IcoMoon</metadata>
<defs>
<font id="feather-icons" horiz-adv-x="1024">
<font-face units-per-em="1024" ascent="960" descent="-64" />
<missing-glyph horiz-adv-x="1024" />
<glyph unicode="&#x20;" horiz-adv-x="512" d="" />
<glyph unicode="&#xe900;" glyph-name="loader" d="M495.531 914.901c-9.351-2.542-16.968-8.642-21.456-16.719l-0.090-0.177c-3.797-7.083-3.797-7.509-4.267-104.875-0.341-63.189 0.128-100.053 1.28-104.277 4.48-16.725 16.811-25.856 36.565-27.136 20.693-1.323 34.261 4.651 41.984 18.475l4.267 7.595v203.093l-3.797 7.125c-2.391 4.254-5.427 7.848-9.021 10.784l-0.067 0.053c-11.264 8.064-30.763 10.624-45.397 6.059zM194.517 790.272c-9.387-4.907-22.699-18.773-26.325-27.435-1.566-3.858-2.474-8.333-2.474-13.021 0-5.483 1.243-10.675 3.462-15.31l-0.092 0.214c4.651-10.325 135.253-141.141 146.517-146.816 15.061-7.509 30.635-3.712 45.397 11.093 14.805 14.763 18.603 30.336 11.093 45.397-5.675 11.264-136.491 141.867-146.816 146.517-4.315 2.086-9.385 3.305-14.739 3.305-5.859 0-11.377-1.46-16.21-4.035l0.186 0.091zM798.72 790.912c-10.325-4.651-141.141-135.253-146.816-146.517-7.509-15.061-3.712-30.635 11.093-45.397 14.763-14.805 30.336-18.603 45.397-11.093 11.264 5.675 141.867 136.491 146.517 146.816 6.827 15.147 3.797 28.544-9.728 43.008-14.891 15.872-30.592 20.352-46.464 13.184zM68.864 488.235c-9.351-2.542-16.968-8.642-21.456-16.719l-0.090-0.177c-3.157-5.931-3.797-9.856-3.797-23.339 0-14.123 0.555-17.195 4.267-23.808 4.693-8.405 12.544-14.507 21.973-17.109 8.363-2.347 193.451-2.347 201.813 0 9.493 2.619 17.237 8.778 21.88 16.932l0.093 0.177c3.712 6.656 4.267 9.643 4.224 23.808-0.043 18.475-3.456 27.52-12.843 34.176-11.605 8.277-14.592 8.491-114.944 8.363-72.149-0.085-95.701-0.597-101.12-2.304zM751.531 488.235c-9.351-2.542-16.968-8.642-21.456-16.719l-0.090-0.177c-3.157-5.931-3.797-9.856-3.797-23.339 0-14.123 0.555-17.195 4.267-23.808 4.693-8.405 12.544-14.507 21.973-17.109 8.363-2.347 193.451-2.347 201.813 0 9.493 2.619 17.237 8.778 21.88 16.932l0.093 0.177c3.712 6.656 4.267 9.643 4.224 23.808-0.043 18.475-3.456 27.52-12.843 34.176-11.605 8.277-14.592 8.491-114.944 8.363-72.149-0.085-95.701-0.597-101.12-2.304zM314.88 307.797c-4.053-2.091-34.475-31.104-74.581-71.168-71.467-71.381-74.624-75.179-74.709-90.069-0.043-9.984 4.011-18.475 13.867-28.885 14.72-15.616 29.909-19.755 45.824-12.587 10.325 4.651 141.141 135.253 146.816 146.517 7.509 15.061 3.712 30.635-11.093 45.397-14.507 14.507-31.317 18.432-46.123 10.795zM676.949 307.84c-8.789-4.651-20.48-16.555-25.088-25.557-2.298-4.452-3.645-9.717-3.645-15.297 0-5.613 1.363-10.907 3.777-15.57l-0.089 0.189c5.675-11.264 136.491-141.867 146.816-146.517 15.36-6.912 28.672-3.755 43.605 10.368 15.616 14.72 19.755 29.909 12.587 45.824-4.523 10.069-135.211 141.141-146.133 146.603-4.653 2.21-10.11 3.501-15.869 3.501-5.794 0-11.283-1.307-16.189-3.641l0.228 0.098zM495.531 232.235c-9.351-2.542-16.968-8.642-21.456-16.719l-0.090-0.177c-3.797-7.083-3.797-7.509-4.267-104.875-0.341-63.189 0.128-100.053 1.28-104.277 4.48-16.725 16.811-25.856 36.565-27.136 20.693-1.323 34.261 4.651 41.984 18.475l4.267 7.595v203.093l-3.797 7.125c-2.391 4.254-5.427 7.848-9.021 10.784l-0.067 0.053c-11.264 8.064-30.763 10.624-45.397 6.059z" />
<glyph unicode="&#xe901;" glyph-name="lock" d="M485.547 915.499c-110.421-10.88-199.765-91.989-224.597-203.819-3.541-16-3.84-22.187-4.48-97.493l-0.725-80.469-32.725-0.811c-28.16-0.725-34.645-1.408-46.421-4.949-41.461-13.147-73.432-45.245-86.15-85.857l-0.25-0.927-4.011-12.8v-344.747l4.011-12.8c13.117-41.864 45.432-74.179 86.363-87.043l0.933-0.253 12.8-4.011h643.413l12.8 4.011c41.864 13.117 74.179 45.432 87.043 86.363l0.253 0.933 4.011 12.8v344.747l-4.011 12.8c-12.968 41.539-44.939 73.637-85.473 86.529l-0.927 0.255c-11.776 3.541-18.261 4.224-46.421 4.949l-32.725 0.811-0.725 80.469c-0.64 75.307-0.939 81.493-4.48 97.493-11.435 51.499-33.408 92.459-68.907 128.64-55.083 56.107-129.664 82.987-208.597 75.179zM537.813 829.525c54.717-8.643 100.087-42.343 124.61-88.759l0.446-0.926c17.877-34.987 19.755-48.085 19.797-137.813v-68.693h-341.333v68.693c0.043 89.728 1.92 102.827 19.797 137.813 24.835 46.81 69.482 80.282 122.46 89.412l1.018 0.145c8.112 1.466 17.448 2.305 26.98 2.305 9.263 0 18.341-0.792 27.17-2.311l-0.945 0.135zM823.893 445.397c11.904-3.541 23.296-14.933 26.837-26.837 2.261-7.509 2.603-29.824 2.603-162.603 0-166.997 0.213-162.987-9.429-175.659-2.603-3.413-8.277-8.32-12.587-10.837l-7.851-4.608h-622.933l-7.851 4.608c-9.034 5.384-15.9 13.602-19.443 23.41l-0.099 0.312c-3.797 10.837-3.712 312.533 0.128 325.376 3.371 11.477 14.976 23.339 26.112 26.752 12.416 3.797 611.669 3.925 624.512 0.085z" />
<glyph unicode="&#xe902;" glyph-name="log-in" d="M623.531 872.277c-9.338-2.594-16.942-8.696-21.455-16.761l-0.091-0.177c-3.157-5.931-3.797-9.856-3.797-23.339 0-14.123 0.555-17.195 4.267-23.808 4.693-8.405 12.544-14.507 21.973-17.109 3.797-1.067 41.899-1.749 98.475-1.749 105.6 0 104.448 0.128 117.504-12.928 13.952-13.995 12.928 12.544 12.928-328.448 0-251.989-0.384-304.512-2.347-310.997-3.329-10.637-10.321-19.306-19.468-24.721l-0.202-0.111-7.851-4.608-198.059-1.707-8.491-4.352c-14.507-7.467-20.523-20.651-19.2-41.899 1.28-19.797 10.411-32.085 27.264-36.608 4.395-1.195 41.088-1.621 108.544-1.237 101.376 0.555 101.931 0.555 113.835 4.523 41.409 13.508 73.312 45.678 86.186 86.313l0.257 0.94 4.011 12.8v643.413l-4.011 12.8c-13.027 41.547-44.966 73.669-85.469 86.696l-0.931 0.259-13.696 4.267-101.547 0.384c-80.555 0.341-102.997-0.043-108.629-1.835zM410.709 702.080c-8.789-4.651-20.48-16.555-25.088-25.557-2.294-4.439-3.639-9.69-3.639-15.255 0-5.631 1.377-10.94 3.813-15.609l-0.089 0.187c2.56-5.12 27.264-31.104 77.355-81.365l73.6-73.813h-208.341c-223.275 0-217.045 0.213-229.248-8.491-9.472-6.741-12.885-15.744-12.885-34.176 0-14.123 0.555-17.195 4.267-23.808 4.693-8.405 12.544-14.507 21.973-17.109 4.011-1.109 80.427-1.749 215.211-1.749h209.024l-73.6-73.813c-50.091-50.261-74.795-76.245-77.355-81.365-7.552-15.019-3.755-30.592 11.051-45.397s30.336-18.603 45.397-11.051c5.248 2.603 40.533 36.565 115.115 110.677 59.179 58.795 109.781 108.373 112.427 110.165 6.571 4.352 15.061 23.253 15.061 33.451 0 10.923-8.448 28.971-15.915 34.091-3.2 2.176-53.803 51.755-112.469 110.208-70.869 70.571-109.099 107.435-113.835 109.824-4.653 2.21-10.11 3.501-15.869 3.501-5.794 0-11.283-1.307-16.189-3.641l0.228 0.098z" />
<glyph unicode="&#xe903;" glyph-name="log-out" d="M191.957 872.832c-47.616-7.979-86.955-42.88-101.76-90.325l-4.011-12.8v-643.413l4.011-12.8c13.131-41.576 45.034-73.745 85.504-86.988l0.939-0.266c11.904-3.968 12.459-3.968 113.835-4.523 67.456-0.384 104.149 0.043 108.544 1.237 9.737 2.504 17.703 8.743 22.435 17.060l0.093 0.177c3.712 6.656 4.267 9.643 4.224 23.808-0.085 22.656-5.419 32.128-22.357 39.637-3.712 1.664-28.928 2.389-103.893 3.029l-98.987 0.853-7.851 4.608c-4.793 2.951-8.888 6.476-12.356 10.551l-0.060 0.073c-10.197 13.397-9.6-7.339-9.6 324.309 0 342.016-1.067 315.349 12.928 329.344 13.056 13.056 11.904 12.928 117.504 12.928 56.576 0 94.677 0.683 98.475 1.749 9.493 2.619 17.237 8.778 21.88 16.932l0.093 0.177c3.712 6.656 4.267 9.643 4.224 23.808-0.043 18.475-3.456 27.52-12.843 34.176-11.648 8.32-14.421 8.491-116.651 8.277-52.651-0.085-99.627-0.853-104.32-1.621zM666.709 702.080c-8.789-4.651-20.48-16.555-25.088-25.557-2.294-4.439-3.639-9.69-3.639-15.255 0-5.631 1.377-10.94 3.813-15.609l-0.089 0.187c2.56-5.12 27.264-31.104 77.355-81.365l73.6-73.813h-208.341c-223.275 0-217.045 0.213-229.248-8.491-9.472-6.741-12.885-15.744-12.885-34.176 0-14.123 0.555-17.195 4.267-23.808 4.693-8.405 12.544-14.507 21.973-17.109 4.011-1.109 80.427-1.749 215.211-1.749h209.024l-73.6-73.813c-50.091-50.261-74.795-76.245-77.355-81.365-7.552-15.019-3.755-30.592 11.051-45.397s30.336-18.603 45.397-11.051c5.248 2.603 40.533 36.565 115.115 110.677 59.179 58.795 109.781 108.373 112.427 110.165 6.571 4.352 15.061 23.253 15.061 33.451 0 10.923-8.448 28.971-15.915 34.091-3.2 2.176-53.803 51.755-112.469 110.208-70.869 70.571-109.099 107.435-113.835 109.824-4.653 2.21-10.11 3.501-15.869 3.501-5.794 0-11.283-1.307-16.189-3.641l0.228 0.098z" />
<glyph unicode="&#xe904;" glyph-name="mail" d="M149.291 830.165c-27.349-4.608-47.104-15.147-68.395-36.395-16.171-16.171-25.216-29.952-31.317-47.701-7.851-22.784-7.808-21.675-6.912-308.309l0.853-270.507 4.48-13.099c7.296-21.333 15.829-34.859 32.896-51.925s30.592-25.6 51.925-32.896l13.099-4.48h732.16l13.099 4.48c21.333 7.296 34.859 15.829 51.925 32.896s25.6 30.592 32.896 51.925l4.48 13.099 0.853 270.507c0.896 286.635 0.939 285.525-6.912 308.309-6.101 17.749-15.147 31.531-31.317 47.701-17.493 17.493-31.616 26.283-53.035 33.067l-13.696 4.309-359.253 0.256c-197.589 0.128-363.136-0.427-367.829-1.237zM864.384 744.747c8.917-2.432 19.755-10.069 23.467-16.427 2.816-4.821 2.816-5.205 0-7.595-9.429-8.064-373.675-261.504-375.851-261.504s-366.421 253.44-375.851 261.504c-2.816 2.389-2.816 2.773 0 7.595 3.541 6.059 14.592 14.037 22.699 16.341 8.661 2.517 696.576 2.603 705.536 0.085zM499.413 364.288c8.107-2.645 17.067-2.645 25.173 0 3.499 1.195 88.533 59.605 188.928 129.877l182.528 127.787-0.427-220.544c-0.469-215.168-0.555-220.672-3.797-227.243-2.83-4.995-6.114-9.298-9.901-13.101l0.002 0.002c-13.056-12.672 17.024-11.733-369.92-11.733s-356.864-0.939-369.92 11.733c-3.785 3.801-7.069 8.104-9.742 12.8l-0.156 0.298c-3.243 6.571-3.328 12.075-3.797 227.243l-0.427 220.544 182.528-127.787c100.395-70.272 185.429-128.683 188.928-129.877z" />
<glyph unicode="&#xe905;" glyph-name="map" d="M323.413 914.688c-4.887-2.043-9.103-4.505-12.938-7.44l0.138 0.101c-3.285-2.603-70.443-41.557-149.248-86.571-78.848-44.971-145.579-83.669-148.309-85.973-2.773-2.304-6.827-8.064-9.003-12.8l-4.011-8.619v-350.72c0-229.717 0.555-352.853 1.707-356.907 5.632-20.267 27.477-31.317 50.645-25.472 5.077 1.28 61.269 32.384 148.352 82.133 77.099 44.032 141.013 80.085 142.080 80.085 2.261 0 304.555-151.552 315.947-158.379 6.912-4.139 9.301-4.608 23.893-4.608 17.323 0 21.547 1.408 34.133 11.136 3.285 2.517 69.547 40.875 147.243 85.205s143.616 82.56 146.432 84.949c2.816 2.347 6.827 7.467 8.917 11.349l3.755 7.040v711.68l-3.883 7.253c-9.6 17.963-36.864 24.235-58.24 13.44-4.309-2.176-67.371-37.973-140.117-79.573 0.593-1.653-44.037-27.305-88.892-52.604l-47.641-24.708c-3.755-1.408-23.296 7.936-157.867 75.435-84.48 42.411-157.44 79.189-162.091 81.707-10.368 5.675-29.909 7.040-41.003 2.859zM512.853 741.12l127.147-63.573v-293.12c0-161.195-0.384-293.12-0.853-293.12s-58.069 28.587-128 63.573l-127.147 63.573v293.12c0 161.195 0.384 293.12 0.853 293.12s58.069-28.587 128-63.573zM298.667 508.928v-292.309l-102.827-58.709c-105.555-57.644-140.407-77.916-175.167-98.328l68.5 37.187-3.84-2.432v292.437l0.043 292.48 106.197 60.843c58.453 33.493 106.453 60.928 106.667 61.013s0.427-131.371 0.427-292.181zM938.667 508.928v-292.309l-102.827-58.709c-56.533-32.256-104.533-59.776-106.667-61.141l-3.84-2.432v292.437l0.043 292.48 106.197 60.843c-158.129-83.504-123.271-63.269-88.38-43.085l195.046 104.098c0.256 0.085 0.427-131.371 0.427-292.181z" />
<glyph unicode="&#xe906;" glyph-name="map-pin" d="M472.747 958.080c-79.957-7.040-158.677-38.485-225.28-89.984-21.205-16.384-58.496-54.528-75.392-77.056-59.733-79.787-89.643-173.568-86.229-270.251 2.816-79.36 26.837-155.349 75.989-240.043 60.672-104.619 169.899-221.184 295.296-315.221 35.627-26.709 39.424-28.672 54.869-28.672s19.243 1.963 54.869 28.672c53.349 40.338 100.611 81.552 144.856 125.784l-0.003-0.003c129.067 128.939 203.221 256.939 222.933 384.853 4.352 28.117 4.352 88.917 0 116.907-11.76 78.435-42.975 148.007-88.547 205.715l0.697-0.915c-14.379 18.56-51.541 55.723-70.272 70.229-88.192 68.224-194.304 99.669-303.787 89.984zM543.317 872.917c80.56-7.432 151.864-42.097 205.726-94.577l-0.073 0.070c28.055-26.972 51.35-58.638 68.671-93.778l0.876-1.966c41.387-84.224 45.525-180.907 11.648-271.659-24.789-66.432-65.536-132.352-124.416-201.344-33.92-39.765-96.213-100.139-143.872-139.477-19.925-16.469-48.555-38.613-49.877-38.613-1.451 0-30.421 22.4-49.493 38.229-49.408 41.045-110.507 100.224-144.299 139.819-76.373 89.429-124.416 177.92-140.715 259.328-4.013 19.583-6.31 42.090-6.31 65.134 0 82.712 29.593 158.512 78.769 217.39l-0.438-0.539c30.573 37.041 68.292 67.009 111.185 88.046l1.967 0.871c43.442 21.802 94.662 34.566 148.863 34.566 11.193 0 22.259-0.544 33.173-1.608l-1.385 0.109zM484.608 701.397c-48.128-7.509-94.507-38.955-118.997-80.725-15.115-24.93-24.060-55.058-24.060-87.276 0-71.241 43.737-132.266 105.825-157.688l1.136-0.412c18.816-7.796 40.667-12.323 63.576-12.323 71.177 0 132.146 43.702 157.538 105.738l0.411 1.135c7.818 18.775 12.358 40.585 12.358 63.455 0 22.831-4.525 44.604-12.726 64.473l0.411-1.124c-22.511 55.302-71.795 95.49-131.313 104.752l-0.954 0.122c-7.884 1.385-16.962 2.177-26.225 2.177-9.532 0-18.868-0.838-27.939-2.446l0.959 0.141zM534.315 615.552c32.053-9.17 56.102-35.688 61.542-68.492l0.068-0.5c4.267-27.861-4.011-53.035-24.064-73.131-17.109-17.195-36.523-25.429-59.861-25.429-21.973 0-41.045 7.595-57.472 22.827-56.747 52.736-19.797 147.627 57.472 147.627 6.101 0 16.128-1.323 22.315-2.901z" />
<glyph unicode="&#xe907;" glyph-name="maximize" d="M191.957 872.832c-47.232-7.936-86.059-42.069-101.717-89.472-3.84-11.691-3.925-13.696-4.523-92.459-0.384-53.163 0-82.773 1.195-87.211 4.565-16.939 16.811-26.027 36.651-27.307 20.693-1.323 34.261 4.651 41.984 18.475l4.267 7.595 0.853 77.653c0.939 87.083 0.555 84.395 13.696 97.152 12.16 11.776 14.592 12.075 95.403 12.075 42.283 0 73.472 0.725 77.141 1.749 9.493 2.619 17.237 8.778 21.88 16.932l0.093 0.177c3.712 6.656 4.267 9.643 4.224 23.808-0.043 18.475-3.456 27.52-12.843 34.176-11.349 8.107-16 8.491-95.317 8.277-40.917-0.085-78.293-0.853-82.987-1.621zM666.197 872.277c-9.338-2.594-16.942-8.696-21.455-16.761l-0.091-0.177c-3.157-5.931-3.797-9.856-3.797-23.339 0-14.123 0.555-17.195 4.267-23.808 4.693-8.405 12.544-14.507 21.973-17.109 3.669-1.024 34.859-1.749 77.141-1.749 81.877 0 83.456-0.213 96.171-12.928s12.928-14.293 12.928-96.171c0-42.283 0.725-73.472 1.749-77.141 4.565-16.427 16.896-25.472 36.48-26.709 20.693-1.323 34.261 4.651 41.984 18.475l4.267 7.595v83.627c0 82.901-0.043 83.755-4.011 96.427-13.012 41.545-44.96 73.661-85.47 86.654l-0.93 0.258c-13.696 4.267-13.781 4.267-93.909 4.693-63.104 0.341-81.749-0.043-87.296-1.835zM111.531 317.568c-9.351-2.542-16.968-8.642-21.456-16.719l-0.090-0.177c-3.797-7.083-3.797-7.552-3.797-90.752 0-82.901 0.043-83.755 4.011-96.427 13.131-41.576 45.034-73.745 85.504-86.988l0.939-0.266c11.691-3.84 13.696-3.925 92.459-4.523 53.163-0.384 82.773 0 87.211 1.195 9.746 2.537 17.718 8.783 22.477 17.103l0.093 0.177c3.712 6.656 4.267 9.643 4.224 23.808-0.085 22.656-5.461 32.213-22.357 39.637-3.627 1.579-25.387 2.347-82.56 3.029l-77.653 0.853-7.851 4.608c-8.301 5.089-14.832 12.347-18.903 20.992l-0.126 0.298c-1.536 3.499-2.347 25.856-2.987 82.475-0.853 76.203-0.939 77.781-4.651 84.779-2.391 4.254-5.427 7.848-9.021 10.784l-0.067 0.053c-11.264 8.064-30.763 10.624-45.397 6.059zM879.531 317.568c-9.351-2.542-16.968-8.642-21.456-16.719l-0.090-0.177c-3.712-6.997-3.797-8.576-4.651-84.779-0.64-56.363-1.493-78.976-3.029-82.475-4.168-8.95-10.689-16.212-18.775-21.17l-0.212-0.121-7.851-4.608-155.392-1.707-8.491-4.352c-14.507-7.467-20.523-20.651-19.2-41.899 1.28-19.84 10.368-32.085 27.307-36.651 4.437-1.195 34.048-1.579 87.211-1.195 78.763 0.597 80.768 0.683 92.459 4.523 41.409 13.508 73.312 45.678 86.186 86.313l0.257 0.94c3.968 12.672 4.011 13.525 4.011 96.427 0 83.2 0 83.669-3.797 90.752-2.391 4.254-5.427 7.848-9.021 10.784l-0.067 0.053c-11.264 8.064-30.763 10.624-45.397 6.059z" />
<glyph unicode="&#xe908;" glyph-name="maximize-2" d="M756.011 874.709l-130.603-0.896-8.491-4.352c-14.507-7.467-20.523-20.651-19.2-41.899 1.237-19.584 10.283-31.915 26.709-36.48 3.755-1.067 38.187-1.749 87.211-1.749h81.067l-116.309-116.48c-81.536-81.664-117.376-118.741-120.064-124.032-7.509-15.061-3.712-30.592 11.093-45.397s30.336-18.603 45.397-11.093c5.291 2.688 42.368 38.528 124.032 120.064l116.48 116.309v-81.067c0-49.024 0.683-83.456 1.749-87.211 4.565-16.427 16.896-25.472 36.48-26.709 20.693-1.323 34.261 4.651 41.984 18.475l4.267 7.595 1.152 134.827c0.64 74.155 1.195 137.344 1.28 140.416 0.171 8.064-8.619 26.411-14.805 30.805-9.557 6.784-20.693 10.581-29.995 10.155-4.864-0.213-67.627-0.811-139.435-1.28zM410.453 403.371c-4.181-2.176-51.883-48.469-123.221-119.723l-116.395-116.181-0.512 84.352c-0.512 83.541-0.555 84.48-4.309 91.52-4.523 8.405-11.477 13.739-22.187 16.981-21.717 6.528-45.227-0.896-53.845-16.981l-3.797-7.125-1.152-134.827c-0.475-65.645-0.939-114.881-1.489-164.096l0.209 23.765c-0.171-5.931 6.741-23.083 11.477-28.416 4.224-4.821 23.253-13.013 29.739-12.885 25.363 0.34 74.634 0.803 123.925 1.181l16.491 0.099c133.504 1.152 134.912 1.195 141.653 4.821 14.293 7.637 18.688 16.64 18.688 38.144 0 18.475-3.371 27.477-12.8 34.176-11.392 8.149-15.659 8.491-101.291 8.491h-80.341l116.309 116.48c81.536 81.664 117.376 118.741 120.064 124.032 7.509 15.061 3.712 30.592-11.093 45.397-14.507 14.507-31.317 18.432-46.123 10.795z" />
<glyph unicode="&#xe909;" glyph-name="meh" d="M481.28 916.352l-23.893-2.56c-80.555-8.533-159.104-40.107-228.693-91.819-25.984-19.328-71.509-64.853-91.051-90.965-106.581-142.805-124.8-327.040-48.171-486.955 23.296-48.555 50.304-86.229 91.349-127.232 41.003-41.045 78.677-68.053 127.232-91.349 159.872-76.629 344.235-58.325 487.125 48.341 25.984 19.371 71.637 65.024 91.008 91.008 126.891 170.027 126.891 396.331 0 566.357-19.371 25.941-64.981 71.552-90.88 90.795-68.053 50.603-139.733 80-222.592 91.264-18.048 2.475-78.891 4.523-91.435 3.115zM568.32 827.691c109.355-16.512 204.971-78.080 266.24-171.477 12.928-19.755 31.701-57.984 39.765-81.067 14.763-42.368 20.693-78.72 20.693-127.147 0-63.701-10.965-111.829-38.272-168.107-30.080-62.037-75.477-113.792-134.528-153.259-33.664-22.528-87.509-45.056-128.811-53.973-24.244-5.414-52.089-8.515-80.658-8.515-91.486 0-175.543 31.805-241.717 84.962l0.754-0.586c-64.555 51.712-112.981 127.573-132.395 207.317-7.936 32.555-10.411 54.272-10.411 92.16 0 63.701 10.965 111.829 38.272 168.107 45.622 92.339 124.633 162.383 220.876 195.211l2.698 0.799c30.080 9.941 54.272 14.848 93.013 18.859 13.739 1.408 67.029-0.64 84.48-3.285zM367.531 616.32c-16.811-5.504-24.533-16.299-25.813-36.053-1.323-20.523 4.693-34.091 18.475-41.813 6.613-3.712 9.685-4.267 23.808-4.267 13.312 0 17.408 0.683 23.040 3.669 13.909 7.509 19.627 18.56 19.627 38.144 0 27.435-12.245 40.619-39.125 41.984-8.107 0.427-15.573-0.213-20.011-1.664zM623.531 616.32c-16.811-5.504-24.533-16.299-25.813-36.053-1.323-20.523 4.693-34.091 18.475-41.813 6.613-3.712 9.685-4.267 23.808-4.267 13.312 0 17.408 0.683 23.040 3.669 13.909 7.509 19.627 18.56 19.627 38.144 0 27.435-12.245 40.619-39.125 41.984-8.107 0.427-15.573-0.213-20.011-1.664zM324.864 360.235c-9.351-2.542-16.968-8.642-21.456-16.719l-0.090-0.177c-3.157-5.931-3.797-9.856-3.797-23.339 0-14.123 0.555-17.195 4.267-23.808 4.693-8.405 12.544-14.507 21.973-17.109 8.448-2.347 364.032-2.347 372.48 0 9.493 2.619 17.237 8.778 21.88 16.932l0.093 0.177c3.712 6.656 4.267 9.643 4.224 23.808-0.043 18.475-3.456 27.52-12.843 34.176-12.16 8.661-8.149 8.491-200.277 8.363-142.208-0.085-180.821-0.555-186.453-2.304z" />
<glyph unicode="&#xe90a;" glyph-name="menu" d="M111.531 744.235c-9.351-2.542-16.968-8.642-21.456-16.719l-0.090-0.177c-3.157-5.931-3.797-9.856-3.797-23.339 0-14.123 0.555-17.195 4.267-23.808 4.693-8.405 12.544-14.507 21.973-17.109 8.533-2.389 790.613-2.389 799.147 0 9.493 2.619 17.237 8.778 21.88 16.932l0.093 0.177c3.712 6.656 4.267 9.643 4.224 23.808-0.043 18.475-3.456 27.52-12.843 34.176-12.501 8.917 8.491 8.491-413.611 8.363-317.355-0.085-394.069-0.512-399.787-2.304zM111.531 488.235c-9.351-2.542-16.968-8.642-21.456-16.719l-0.090-0.177c-3.157-5.931-3.797-9.856-3.797-23.339 0-14.123 0.555-17.195 4.267-23.808 4.693-8.405 12.544-14.507 21.973-17.109 8.533-2.389 790.613-2.389 799.147 0 9.493 2.619 17.237 8.778 21.88 16.932l0.093 0.177c3.712 6.656 4.267 9.643 4.224 23.808-0.043 18.475-3.456 27.52-12.843 34.176-12.501 8.917 8.491 8.491-413.611 8.363-317.355-0.085-394.069-0.512-399.787-2.304zM111.531 232.235c-9.351-2.542-16.968-8.642-21.456-16.719l-0.090-0.177c-3.157-5.931-3.797-9.856-3.797-23.339 0-14.123 0.555-17.195 4.267-23.808 4.693-8.405 12.544-14.507 21.973-17.109 8.533-2.389 790.613-2.389 799.147 0 9.493 2.619 17.237 8.778 21.88 16.932l0.093 0.177c3.712 6.656 4.267 9.643 4.224 23.808-0.043 18.475-3.456 27.52-12.843 34.176-12.501 8.917 8.491 8.491-413.611 8.363-317.355-0.085-394.069-0.512-399.787-2.304z" />
<glyph unicode="&#xe90b;" glyph-name="message-circle" d="M502.613 873.643c-59.861-5.888-106.496-19.413-155.563-45.013-38.485-20.096-65.323-39.339-94.848-68.011-83.84-81.408-127.573-189.269-123.648-304.811 1.621-47.531 8.619-82.944 25.344-128.043l8.832-23.765-38.912-116.864c-36.608-109.952-38.869-117.461-38.016-126.507 2.261-25.088 21.803-43.392 42.837-40.149 3.883 0.597 59.307 18.475 123.179 39.68l116.181 38.571 23.765-8.832c44.672-16.555 80.469-23.723 127.061-25.344 116.139-4.053 224.213 39.637 305.835 123.733 56.678 58.714 95.984 134.539 109.433 218.984l0.306 2.328c3.797 23.893 5.205 77.525 2.731 101.632-17.36 164.068-130.313 297.787-281.458 345.375l-2.872 0.78c-37.973 11.605-64.853 15.659-108.373 16.384-5.554 0.15-12.093 0.236-18.652 0.236-8.144 0-16.258-0.132-24.339-0.394l1.177 0.030zM569.173 787.584c75.955-8.127 142.709-42.249 192.319-93.159l0.065-0.067c56.832-57.856 87.851-129.109 91.221-209.664 0.232-4.534 0.364-9.845 0.364-15.186 0-51.903-12.48-100.891-34.603-144.128l0.831 1.789c-17.707-35.371-44.672-71.637-69.333-93.355-60.459-53.205-128.256-81.024-204.757-83.925-51.797-2.005-94.379 6.485-146.176 29.056-27.776 12.16-23.253 12.885-119.979-19.328-6.219-3.123-33.585-12.252-61.125-20.993l-21.179-5.801c-0.256 0.256 11.947 37.717 27.136 83.157 32.597 97.707 31.701 92.075 18.816 120.235-18.414 39.148-29.162 85.024-29.162 133.41 0 34.962 5.611 68.613 15.983 100.103l-0.645-2.26c17.109 53.461 53.248 108.416 94.080 143.019 50.261 42.581 114.005 70.443 176.171 76.971 10.704 1.009 23.146 1.584 35.722 1.584 12.057 0 23.991-0.529 35.779-1.564l-1.528 0.108z" />
<glyph unicode="&#xe90c;" glyph-name="message-square" d="M191.957 872.832c-47.744-8.064-86.955-42.88-101.76-90.325l-4.011-12.8v-718.507l4.651-7.936c12.032-20.437 34.773-29.184 52.651-20.224 5.163 2.603 33.451 29.611 90.325 86.315l82.773 82.56 518.827 0.939 11.947 4.011c42.283 14.165 73.472 45.653 86.443 87.296l4.011 12.8v472.747l-4.011 12.8c-13.049 41.546-44.977 73.67-85.467 86.737l-0.933 0.26-13.696 4.309-316.587 0.256c-174.123 0.128-320.469-0.427-325.163-1.237zM823.893 786.731c11.904-3.541 23.296-14.933 26.837-26.837 2.261-7.595 2.603-36.523 2.603-226.603 0-179.669-0.427-219.221-2.347-225.664-3.329-10.637-10.321-19.306-19.468-24.721l-0.202-0.111-7.851-4.608-267.947-0.853c-252.885-0.811-268.331-1.024-274.731-3.925-4.48-2.005-24.32-20.523-58.453-54.528l-51.669-51.499v291.883c0 256.341 0.299 292.949 2.603 300.629 3.371 11.477 14.976 23.339 26.112 26.752 12.416 3.797 611.669 3.925 624.512 0.085z" />
<glyph unicode="&#xe90d;" glyph-name="mic" d="M484.608 957.397c-69.419-10.837-125.483-64.981-139.733-135.083-3.456-16.853-3.541-22.059-3.541-203.648s0.085-186.795 3.541-203.648c11.454-57.317 50.552-103.496 102.504-124.648l1.134-0.408c18.816-7.796 40.667-12.323 63.576-12.323 71.177 0 132.146 43.702 157.538 105.738l0.411 1.135c3.2 8.021 7.381 22.016 9.259 31.189 3.243 16 3.371 23.765 3.371 202.965s-0.128 186.965-3.371 202.965c-8.533 41.771-30.891 77.995-63.275 102.4-21.739 17.007-48.281 28.888-77.265 33.373l-0.943 0.12c-7.884 1.385-16.962 2.177-26.225 2.177-9.532 0-18.868-0.838-27.939-2.446l0.959 0.141zM534.315 871.552c21.291-5.547 42.368-22.443 53.291-42.581 9.771-18.048 9.685-15.915 9.685-210.304 0-194.304 0.085-192.085-9.685-210.389-6.272-11.819-24.789-30.379-35.925-36.011-11.53-6.011-25.181-9.537-39.655-9.537-14.275 0-27.749 3.43-39.643 9.51l0.493-0.229c-11.392 5.76-27.051 20.651-34.219 32.597-12.288 20.395-11.776 11.52-11.904 212.864-0.085 200.661-0.427 194.517 11.221 213.931 16.256 27.136 43.648 43.051 74.027 43.051 6.101 0 16.128-1.323 22.315-2.901zM196.864 573.568c-9.351-2.542-16.968-8.642-21.456-16.719l-0.090-0.177c-3.669-6.912-3.797-8.96-4.352-65.152-0.555-61.184 0.768-83.285 6.784-112.64 11.851-53.525 34.227-100.536 64.976-140.813l-0.635 0.866c11.051-14.464 39.765-43.733 54.869-55.936 30.863-24.78 66.83-44.838 105.87-58.3l2.503-0.751c20.437-6.656 51.328-13.867 59.648-13.867h4.352v-88.747h-68.011c-72.363 0-77.739-0.512-88.917-8.491-9.472-6.741-12.885-15.744-12.885-34.176 0-14.123 0.555-17.195 4.267-23.808 4.693-8.405 12.544-14.507 21.973-17.109 8.448-2.347 364.032-2.347 372.48 0 9.493 2.619 17.237 8.778 21.88 16.932l0.093 0.177c3.712 6.656 4.267 9.643 4.224 23.808-0.043 18.475-3.456 27.52-12.843 34.176-11.179 7.979-16.555 8.491-88.917 8.491h-68.011v88.747h4.352c8.32 0 39.211 7.211 59.648 13.867 41.543 14.212 77.51 34.27 109.072 59.593l-0.699-0.542c15.104 12.203 43.819 41.472 54.869 55.936 30.114 39.411 52.49 86.421 63.896 137.569l0.445 2.378c6.059 29.483 7.381 51.456 6.784 112.64-0.555 56.533-0.64 58.197-4.437 65.28-7.040 13.227-23.893 20.48-43.307 18.731-18.56-1.707-31.275-11.221-35.541-26.624-0.981-3.499-1.749-28.501-1.792-57.387-0.085-70.016-2.603-92.928-13.995-126.293-29.141-85.504-101.547-148.821-192.469-168.32-14.933-3.2-23.168-3.84-49.493-3.84-35.029 0-53.163 2.816-82.773 12.928-72.32 24.661-132.395 83.84-157.824 155.435-12.459 35.072-13.867 46.592-15.189 122.411-1.109 63.317-1.28 65.963-4.907 72.832-2.377 4.253-5.4 7.847-8.98 10.785l-0.065 0.052c-11.264 8.064-30.763 10.624-45.397 6.059z" />
<glyph unicode="&#xe90e;" glyph-name="mic-off" d="M21.675 954.752c-7.68-5.077-15.701-13.824-19.712-21.504-2.944-5.632-2.475-27.051 0.768-33.493 1.493-2.987 78.251-81.109 170.581-173.568l167.808-168.107 0.683-69.12c0.597-65.451 0.853-69.845 4.48-82.731 8.65-31.229 24.639-58.021 46.036-79.401l0.001-0.001c30.733-30.45 73.040-49.264 119.742-49.264 27.421 0 53.327 6.486 76.267 18.008l-0.979-0.446 11.392 5.589 62.592-62.763-4.267-3.285c-21.675-16.597-66.773-34.859-101.888-41.216-13.739-2.475-65.579-3.2-79.019-1.152-99.797 15.445-178.859 82.987-208.768 178.261-9.003 28.587-10.069 39.339-11.221 111.573-1.024 65.707-1.152 67.584-4.907 74.667-7.040 13.184-23.893 20.48-43.307 18.731-18.944-1.707-31.403-11.264-35.755-27.392-1.237-4.651-1.579-28.971-1.109-74.411 0.811-70.741 1.408-77.44 10.027-111.915 22-83.694 72.484-153.201 140.236-199.165l1.204-0.771c36.139-24.064 87.125-44.928 126.379-51.712 6.059-1.067 13.141-2.304 15.701-2.816l4.693-0.939v-85.077h-68.011c-72.363 0-77.739-0.512-88.917-8.491-9.472-6.741-12.885-15.744-12.885-34.176 0-14.123 0.555-17.195 4.267-23.808 4.693-8.405 12.544-14.507 21.973-17.109 8.448-2.347 364.032-2.347 372.48 0 9.493 2.619 17.237 8.778 21.88 16.932l0.093 0.177c3.712 6.656 4.267 9.643 4.224 23.808-0.043 18.475-3.456 27.52-12.843 34.176-11.179 7.979-16.555 8.491-88.917 8.491h-68.011v85.248l3.84 0.811c2.091 0.469 10.24 2.048 18.048 3.541 48.128 9.216 97.195 30.080 133.12 56.661l12.672 9.387 117.973-117.76c64.896-64.768 120.448-118.955 123.435-120.491 3.541-1.749 9.899-2.731 18.048-2.731 11.221 0 13.483 0.597 20.523 5.248 7.68 5.077 15.701 13.824 19.712 21.504 1.067 2.048 1.963 9.429 1.963 16.384 0 11.136-0.597 13.568-4.949 20.011-2.688 4.053-138.709 141.44-302.208 305.323l-300.971 301.696c-116.181 116.651-351.659 349.099-355.627 351.104-3.541 1.749-9.899 2.731-18.048 2.731-11.221 0-13.483-0.597-20.523-5.248zM488.96 958.805c-55.552-7.296-108.117-46.165-131.797-97.365-6.272-13.653-14.123-41.728-14.123-50.56 0.043-22.869 19.328-38.613 47.317-38.613 21.163 0 29.952 7.979 38.101 34.517 6.528 21.248 13.995 34.091 26.496 45.525 14.932 13.686 34.915 22.073 56.858 22.073 23.224 0 44.254-9.395 59.496-24.592l-0.002 0.002c12.373-12.331 21.717-30.080 24.363-46.037 0.939-5.888 1.664-60.715 1.664-130.603 0-133.248-0.043-132.437 10.624-142.763 8.235-7.979 16.981-11.008 31.915-11.051 21.504-0.085 35.413 8.491 40.277 24.917 3.712 12.544 3.712 253.056 0 274.304-6.528 37.333-21.376 65.109-49.536 92.8-23.523 23.59-54.208 40.028-88.515 45.777l-0.957 0.132c-9.781 1.534-21.062 2.41-32.547 2.41-6.913 0-13.751-0.317-20.501-0.938l0.867 0.064zM794.197 573.568c-9.351-2.542-16.968-8.642-21.456-16.719l-0.090-0.177c-3.669-6.869-3.84-9.259-4.821-70.272-0.555-34.731-2.005-71.211-3.243-81.067-2.56-20.949-1.109-29.099 6.869-38.187 8.149-9.301 20.395-13.781 37.632-13.824 12.928-0.043 15.403 0.469 21.333 4.395 9.899 6.528 15.573 18.304 19.029 39.339 2.389 14.507 2.944 29.696 2.987 85.077 0.043 66.475 0 67.499-3.755 74.539-2.391 4.254-5.427 7.848-9.021 10.784l-0.067 0.053c-11.264 8.064-30.763 10.624-45.397 6.059zM532.096 365.141c-0.555-0.597-7.083-1.493-14.421-2.005-1.847-0.147-3.998-0.232-6.169-0.232-22.864 0-43.55 9.323-58.465 24.375l-0.006 0.006c-18.688 18.731-24.619 33.493-25.856 64.128l-0.853 21.333 53.419-53.248c29.397-29.312 52.949-53.76 52.352-54.357z" />
<glyph unicode="&#xe90f;" glyph-name="minimize" d="M324.864 872.235c-9.351-2.542-16.968-8.642-21.456-16.719l-0.090-0.177c-3.712-6.997-3.797-8.576-4.651-84.779-0.64-56.363-1.493-78.976-3.029-82.475-4.168-8.95-10.689-16.212-18.775-21.17l-0.212-0.121-7.851-4.608-155.392-1.707-8.491-4.352c-14.507-7.467-20.523-20.651-19.2-41.899 1.28-19.84 10.368-32.085 27.307-36.651 4.437-1.195 34.048-1.579 87.211-1.195 78.763 0.597 80.768 0.683 92.459 4.523 41.409 13.508 73.312 45.678 86.186 86.313l0.257 0.94c3.968 12.672 4.011 13.525 4.011 96.427 0 83.2 0 83.669-3.797 90.752-2.391 4.254-5.427 7.848-9.021 10.784l-0.067 0.053c-11.264 8.064-30.763 10.624-45.397 6.059zM666.197 872.235c-9.351-2.542-16.968-8.642-21.456-16.719l-0.090-0.177c-3.797-7.083-3.797-7.552-3.797-90.752 0-82.901 0.043-83.755 4.011-96.427 13.131-41.576 45.034-73.745 85.504-86.988l0.939-0.266c11.691-3.84 13.696-3.925 92.459-4.523 53.163-0.384 82.773 0 87.211 1.195 9.746 2.537 17.718 8.783 22.477 17.103l0.093 0.177c3.712 6.656 4.267 9.643 4.224 23.808-0.085 22.656-5.461 32.213-22.357 39.637-3.627 1.579-25.387 2.347-82.56 3.029l-77.653 0.853-7.851 4.608c-8.301 5.089-14.832 12.347-18.903 20.992l-0.126 0.298c-1.536 3.499-2.347 25.856-2.987 82.475-0.853 76.203-0.939 77.781-4.651 84.779-2.391 4.254-5.427 7.848-9.021 10.784l-0.067 0.053c-11.264 8.064-30.763 10.624-45.397 6.059zM111.531 317.611c-9.338-2.594-16.942-8.696-21.455-16.761l-0.091-0.177c-3.157-5.931-3.797-9.856-3.797-23.339 0-14.123 0.555-17.195 4.267-23.808 4.693-8.405 12.544-14.507 21.973-17.109 3.669-1.024 34.859-1.749 77.141-1.749 81.877 0 83.456-0.213 96.171-12.928s12.928-14.293 12.928-96.171c0-42.283 0.725-73.472 1.749-77.141 4.565-16.427 16.896-25.472 36.48-26.709 20.693-1.323 34.261 4.651 41.984 18.475l4.267 7.595v83.627c0 82.901-0.043 83.755-4.011 96.427-13.012 41.545-44.96 73.661-85.47 86.654l-0.93 0.258c-13.696 4.267-13.781 4.267-93.909 4.693-63.104 0.341-81.749-0.043-87.296-1.835zM746.624 318.165c-47.232-7.936-86.059-42.069-101.717-89.472-3.84-11.691-3.925-13.696-4.523-92.459-0.384-53.163 0-82.773 1.195-87.211 4.565-16.939 16.811-26.027 36.651-27.307 20.693-1.323 34.261 4.651 41.984 18.475l4.267 7.595 0.853 77.653c0.939 87.083 0.555 84.395 13.696 97.152 12.16 11.776 14.592 12.075 95.403 12.075 42.283 0 73.472 0.725 77.141 1.749 9.493 2.619 17.237 8.778 21.88 16.932l0.093 0.177c3.712 6.656 4.267 9.643 4.224 23.808-0.043 18.475-3.456 27.52-12.843 34.176-11.349 8.107-16 8.491-95.317 8.277-40.917-0.085-78.293-0.853-82.987-1.621z" />
<glyph unicode="&#xe910;" glyph-name="minimize-2" d="M879.787 872.704c-4.181-2.176-51.883-48.469-123.221-119.723l-116.395-116.181-0.512 84.352c-0.512 83.541-0.555 84.48-4.309 91.52-4.523 8.405-11.477 13.739-22.187 16.981-21.717 6.528-45.227-0.896-53.845-16.981l-3.797-7.125-1.152-134.827c-0.475-65.645-0.939-114.881-1.489-164.096l0.209 23.765c-0.171-5.931 6.741-23.083 11.477-28.416 4.224-4.821 23.253-13.013 29.739-12.885 25.363 0.34 74.634 0.803 123.925 1.181l16.491 0.099c133.504 1.152 134.912 1.195 141.653 4.821 14.293 7.637 18.688 16.64 18.688 38.144 0 18.475-3.371 27.477-12.8 34.176-11.392 8.149-15.659 8.491-101.291 8.491h-80.341l116.309 116.48c81.536 81.664 117.376 118.741 120.064 124.032 7.509 15.061 3.712 30.592-11.093 45.397-14.507 14.507-31.317 18.432-46.123 10.795zM286.677 405.376l-130.603-0.896-8.491-4.352c-14.507-7.467-20.523-20.651-19.2-41.899 1.237-19.584 10.283-31.915 26.709-36.48 3.755-1.067 38.187-1.749 87.211-1.749h81.067l-116.309-116.48c-81.536-81.664-117.376-118.741-120.064-124.032-7.509-15.061-3.712-30.592 11.093-45.397s30.336-18.603 45.397-11.093c5.291 2.688 42.368 38.528 124.032 120.064l116.48 116.309v-81.067c0-49.024 0.683-83.456 1.749-87.211 4.565-16.427 16.896-25.472 36.48-26.709 20.693-1.323 34.261 4.651 41.984 18.475l4.267 7.595 1.152 134.827c0.64 74.155 1.195 137.344 1.28 140.416 0.171 8.064-8.619 26.411-14.805 30.805-9.557 6.784-20.693 10.581-29.995 10.155-4.864-0.213-67.627-0.811-139.435-1.28z" />
<glyph unicode="&#xe911;" glyph-name="minus" d="M196.864 488.235c-9.351-2.542-16.968-8.642-21.456-16.719l-0.090-0.177c-3.157-5.931-3.797-9.856-3.797-23.339 0-14.123 0.555-17.195 4.267-23.808 4.693-8.405 12.544-14.507 21.973-17.109 8.533-2.389 619.947-2.389 628.48 0 9.493 2.619 17.237 8.778 21.88 16.932l0.093 0.177c3.712 6.656 4.267 9.643 4.224 23.808-0.043 18.475-3.456 27.52-12.843 34.176-12.416 8.875 1.792 8.491-328.277 8.363-247.296-0.085-308.779-0.555-314.453-2.304z" />
<glyph unicode="&#xe912;" glyph-name="minus-circle" d="M481.28 916.352l-23.893-2.56c-80.555-8.533-159.104-40.107-228.693-91.819-25.984-19.328-71.509-64.853-91.051-90.965-106.581-142.805-124.8-327.040-48.171-486.955 23.296-48.555 50.304-86.229 91.349-127.232 41.003-41.045 78.677-68.053 127.232-91.349 159.872-76.629 344.235-58.325 487.125 48.341 25.984 19.371 71.637 65.024 91.008 91.008 126.891 170.027 126.891 396.331 0 566.357-19.371 25.941-64.981 71.552-90.88 90.795-68.053 50.603-139.733 80-222.592 91.264-18.048 2.475-78.891 4.523-91.435 3.115zM568.32 827.691c109.355-16.512 204.971-78.080 266.24-171.477 12.928-19.755 31.701-57.984 39.765-81.067 14.763-42.368 20.693-78.72 20.693-127.147 0-63.701-10.965-111.829-38.272-168.107-30.080-62.037-75.477-113.792-134.528-153.259-33.664-22.528-87.509-45.056-128.811-53.973-24.244-5.414-52.089-8.515-80.658-8.515-91.486 0-175.543 31.805-241.717 84.962l0.754-0.586c-64.555 51.712-112.981 127.573-132.395 207.317-7.936 32.555-10.411 54.272-10.411 92.16 0 63.701 10.965 111.829 38.272 168.107 45.622 92.339 124.633 162.383 220.876 195.211l2.698 0.799c30.080 9.941 54.272 14.848 93.013 18.859 13.739 1.408 67.029-0.64 84.48-3.285zM324.864 488.235c-9.351-2.542-16.968-8.642-21.456-16.719l-0.090-0.177c-3.157-5.931-3.797-9.856-3.797-23.339 0-14.123 0.555-17.195 4.267-23.808 4.693-8.405 12.544-14.507 21.973-17.109 8.448-2.347 364.032-2.347 372.48 0 9.493 2.619 17.237 8.778 21.88 16.932l0.093 0.177c3.712 6.656 4.267 9.643 4.224 23.808-0.043 18.475-3.456 27.52-12.843 34.176-12.16 8.661-8.149 8.491-200.277 8.363-142.208-0.085-180.821-0.555-186.453-2.304z" />
<glyph unicode="&#xe913;" glyph-name="minus-square" d="M191.957 872.832c-47.744-8.064-86.955-42.88-101.76-90.325l-4.011-12.8v-643.413l4.011-12.8c13.117-41.864 45.432-74.179 86.363-87.043l0.933-0.253 12.8-4.011h643.413l12.8 4.011c41.864 13.117 74.179 45.432 87.043 86.363l0.253 0.933 4.011 12.8v643.413l-4.011 12.8c-13.049 41.546-44.977 73.67-85.467 86.737l-0.933 0.26-13.696 4.309-316.587 0.256c-174.123 0.128-320.469-0.427-325.163-1.237zM823.893 786.731c11.904-3.541 23.296-14.933 26.837-26.837 2.304-7.68 2.603-45.44 2.603-311.936 0-251.989-0.384-304.512-2.347-310.997-3.329-10.637-10.321-19.306-19.468-24.721l-0.202-0.111-7.851-4.608h-622.933l-7.851 4.608c-4.793 2.951-8.888 6.476-12.356 10.551l-0.060 0.073c-10.197 13.397-9.6-7.339-9.6 324.309 0 267.264 0.299 305.152 2.603 312.832 3.371 11.477 14.976 23.339 26.112 26.752 12.416 3.797 611.669 3.925 624.512 0.085zM324.864 488.235c-9.351-2.542-16.968-8.642-21.456-16.719l-0.090-0.177c-3.157-5.931-3.797-9.856-3.797-23.339 0-14.123 0.555-17.195 4.267-23.808 4.693-8.405 12.544-14.507 21.973-17.109 8.448-2.347 364.032-2.347 372.48 0 9.493 2.619 17.237 8.778 21.88 16.932l0.093 0.177c3.712 6.656 4.267 9.643 4.224 23.808-0.043 18.475-3.456 27.52-12.843 34.176-12.16 8.661-8.149 8.491-200.277 8.363-142.208-0.085-180.821-0.555-186.453-2.304z" />
<glyph unicode="&#xe914;" glyph-name="monitor" d="M149.291 872.832c-47.744-8.064-86.955-42.88-101.76-90.325l-4.011-12.8v-472.747l4.011-12.8c12.971-41.643 44.16-73.131 86.443-87.296l11.947-4.011 323.413-0.981v-85.205h-68.011c-72.363 0-77.739-0.512-88.917-8.491-9.472-6.741-12.885-15.744-12.885-34.176 0-14.123 0.555-17.195 4.267-23.808 4.693-8.405 12.544-14.507 21.973-17.109 8.448-2.347 364.032-2.347 372.48 0 9.493 2.619 17.237 8.778 21.88 16.932l0.093 0.177c3.712 6.656 4.267 9.643 4.224 23.808-0.043 18.475-3.456 27.52-12.843 34.176-11.179 7.979-16.555 8.491-88.917 8.491h-68.011v85.205l323.413 0.981 11.947 4.011c42.283 14.165 73.472 45.653 86.443 87.296l4.011 12.8v472.747l-4.011 12.8c-13.049 41.546-44.977 73.67-85.467 86.737l-0.933 0.26-13.696 4.309-359.253 0.256c-197.589 0.128-363.136-0.427-367.829-1.237zM866.56 786.731c11.904-3.541 23.296-14.933 26.837-26.837 2.261-7.595 2.603-36.523 2.603-226.603 0-179.669-0.427-219.221-2.347-225.664-3.329-10.637-10.321-19.306-19.468-24.721l-0.202-0.111-7.851-4.608h-708.267l-7.851 4.608c-9.034 5.384-15.9 13.602-19.443 23.41l-0.099 0.312c-3.797 10.88-3.712 440.448 0.128 453.376 3.371 11.477 14.976 23.339 26.112 26.752 6.827 2.091 57.899 2.475 354.56 2.56 305.536 0.128 347.605-0.171 355.285-2.475z" />
<glyph unicode="&#xe915;" glyph-name="moon" d="M449.536 871.253c-109.711-17.194-203.753-73.974-268.879-154.988l-0.646-0.831c-44.8-55.851-75.605-125.696-87.936-199.168-5.163-30.848-6.315-80.427-2.603-112.64 22.912-199.467 178.005-355.157 376.448-377.941 110.72-12.715 223.061 19.456 312.661 89.515 18.091 14.165 53.931 49.749 67.968 67.413 47.376 59.31 79.76 132.549 90.302 212.669l0.237 2.201c3.115 24.064 0.469 34.731-11.819 47.659-10.837 11.392-22.229 15.531-35.243 12.757-4.864-1.024-14.677-6.187-25.856-13.568-33.579-22.101-59.989-33.195-99.584-41.728-20.224-4.352-69.632-4.437-91.307-0.171-101.12 20.011-178.944 93.184-202.837 190.635-17.152 70.016-5.12 140.587 34.475 201.685 5.675 8.789 11.52 18.816 12.971 22.315 6.101 14.549 0.981 39.083-10.197 48.853-10.795 9.515-23.083 10.624-58.155 5.333zM397.653 769.963c0-0.299-1.579-5.12-3.456-10.667-32-92.672-17.707-203.904 37.077-288.853 77.227-119.723 221.312-179.84 358.357-149.461 17.776 3.984 32.59 8.343 47.011 13.526l-2.723-0.854c2.517 0-14.805-37.248-26.581-57.173-53.641-89.639-144.931-152.003-251.462-165.375l-1.679-0.172c-144.64-17.877-285.099 59.776-348.715 192.853-20.791 42.719-32.945 92.934-32.945 145.987 0 46.765 9.443 91.324 26.528 131.875l-0.836-2.235c30.080 70.939 80.884 128.224 144.755 165.602l1.634 0.884c19.115 10.965 53.035 26.368 53.035 24.064z" />
<glyph unicode="&#xe916;" glyph-name="more-horizontal" d="M191.019 530.219c-28.629-7.509-52.864-32-60.459-61.227-1.576-6.242-2.48-13.407-2.48-20.784 0-14.551 3.519-28.28 9.752-40.383l-0.232 0.495c5.803-11.477 24.576-30.251 36.053-36.053 11.539-6.009 25.198-9.534 39.68-9.534s28.141 3.525 40.166 9.763l-0.486-0.229c11.349 5.76 30.208 24.533 35.883 35.755 6.043 11.576 9.589 25.283 9.589 39.818 0 7.188-0.867 14.173-2.502 20.856l0.124-0.599c-3.316 14.688-10.44 27.375-20.278 37.387l0.011-0.011c-15.454 17.011-37.662 27.648-62.355 27.648-0.053 0-0.107 0-0.16 0h0.008c-6.101 0-16.128-1.323-22.315-2.901zM489.685 530.219c-28.629-7.509-52.864-32-60.459-61.227-1.576-6.242-2.48-13.407-2.48-20.784 0-14.551 3.519-28.28 9.752-40.383l-0.232 0.495c5.803-11.477 24.576-30.251 36.053-36.053 11.539-6.009 25.198-9.534 39.68-9.534s28.141 3.525 40.166 9.763l-0.486-0.229c11.349 5.76 30.208 24.533 35.883 35.755 6.043 11.576 9.589 25.283 9.589 39.818 0 7.188-0.867 14.173-2.502 20.856l0.124-0.599c-3.316 14.688-10.44 27.375-20.278 37.387l0.011-0.011c-15.454 17.011-37.662 27.648-62.355 27.648-0.053 0-0.107 0-0.16 0h0.008c-6.101 0-16.128-1.323-22.315-2.901zM788.352 530.219c-28.629-7.509-52.864-32-60.459-61.227-1.576-6.242-2.48-13.407-2.48-20.784 0-14.551 3.519-28.28 9.752-40.383l-0.232 0.495c5.803-11.477 24.576-30.251 36.053-36.053 11.539-6.009 25.198-9.534 39.68-9.534s28.141 3.525 40.166 9.763l-0.486-0.229c11.349 5.76 30.208 24.533 35.883 35.755 6.043 11.576 9.589 25.283 9.589 39.818 0 7.188-0.867 14.173-2.502 20.856l0.124-0.599c-3.316 14.688-10.44 27.375-20.278 37.387l0.011-0.011c-15.454 17.011-37.662 27.648-62.355 27.648-0.053 0-0.107 0-0.16 0h0.008c-6.101 0-16.128-1.323-22.315-2.901z" />
<glyph unicode="&#xe917;" glyph-name="more-vertical" d="M489.685 828.885c-28.629-7.509-52.864-32-60.459-61.227-1.576-6.242-2.48-13.407-2.48-20.784 0-14.551 3.519-28.28 9.752-40.383l-0.232 0.495c5.803-11.477 24.576-30.251 36.053-36.053 11.539-6.009 25.198-9.534 39.68-9.534s28.141 3.525 40.166 9.763l-0.486-0.229c11.349 5.76 30.208 24.533 35.883 35.755 6.043 11.576 9.589 25.283 9.589 39.818 0 7.188-0.867 14.173-2.502 20.856l0.124-0.599c-3.316 14.688-10.44 27.375-20.278 37.387l0.011-0.011c-15.542 17.049-37.844 27.706-62.634 27.706-7.893 0-15.534-1.080-22.782-3.101l0.595 0.142zM489.685 530.219c-28.629-7.509-52.864-32-60.459-61.227-1.576-6.242-2.48-13.407-2.48-20.784 0-14.551 3.519-28.28 9.752-40.383l-0.232 0.495c5.803-11.477 24.576-30.251 36.053-36.053 11.539-6.009 25.198-9.534 39.68-9.534s28.141 3.525 40.166 9.763l-0.486-0.229c11.349 5.76 30.208 24.533 35.883 35.755 6.043 11.576 9.589 25.283 9.589 39.818 0 7.188-0.867 14.173-2.502 20.856l0.124-0.599c-3.316 14.688-10.44 27.375-20.278 37.387l0.011-0.011c-15.454 17.011-37.662 27.648-62.355 27.648-0.053 0-0.107 0-0.16 0h0.008c-6.101 0-16.128-1.323-22.315-2.901zM489.685 231.552c-28.629-7.509-52.864-32-60.459-61.227-1.576-6.242-2.48-13.407-2.48-20.784 0-14.551 3.519-28.28 9.752-40.383l-0.232 0.495c5.803-11.477 24.576-30.251 36.053-36.053 11.539-6.009 25.198-9.534 39.68-9.534s28.141 3.525 40.166 9.763l-0.486-0.229c11.349 5.76 30.208 24.533 35.883 35.755 6.043 11.576 9.589 25.283 9.589 39.818 0 7.188-0.867 14.173-2.502 20.856l0.124-0.599c-3.316 14.688-10.44 27.375-20.278 37.387l0.011-0.011c-15.454 17.011-37.662 27.648-62.355 27.648-0.053 0-0.107 0-0.16 0h0.008c-6.101 0-16.128-1.323-22.315-2.901z" />
<glyph unicode="&#xe918;" glyph-name="mouse-pointer" d="M109.952 873.131c-8.704-3.925-16.853-13.696-21.248-25.429-4.437-11.819-4.267-20.139 0.683-33.152 13.568-35.755 302.677-727.211 306.688-733.483 2.688-4.224 7.68-9.557 11.093-11.861 17.579-11.861 50.517-1.408 60.032 19.072 1.835 4.011 21.12 59.52 42.795 123.349l45.099 132.608 116.267-116.053c81.536-81.365 118.528-117.163 123.819-119.851 15.061-7.509 30.592-3.712 45.397 11.093s18.603 30.336 11.093 45.397c-2.688 5.291-38.485 42.283-119.808 123.776l-116.011 116.181 25.301 8.789c13.909 4.821 71.637 24.491 128.256 43.733s105.429 36.48 108.416 38.315c6.941 4.052 12.329 10.114 15.44 17.382l0.091 0.239c3.499 8.405 3.328 15.787-0.725 28.885-3.481 11.596-11.457 20.908-21.855 26.086l-0.247 0.111c-14.379 7.253-727.339 303.445-735.616 305.621-12.16 3.157-16.512 3.029-24.96-0.811zM467.541 644.309c141.867-59.136 259.072-108.117 260.395-108.843 1.621-0.896-34.261-13.867-102.272-36.949-57.6-19.541-107.989-37.461-111.915-39.808-4.726-3.114-8.673-6.994-11.768-11.504l-0.093-0.144c-2.688-4.224-19.883-52.224-40.32-112.427-23.125-68.181-36.139-104.192-37.035-102.571-1.621 2.901-216.32 518.059-216.32 519.040 0 0.384 0.299 0.683 0.683 0.683s116.736-48.384 258.645-107.477z" />
<glyph unicode="&#xe919;" glyph-name="move" d="M491.947 913.792c-5.845-2.859-11.989-7.211-13.653-9.685-1.621-2.517-31.872-33.749-67.2-69.461-42.667-43.136-65.536-67.499-68.053-72.491-7.552-15.019-3.755-30.592 11.051-45.397s30.421-18.603 45.397-11.008c4.523 2.304 20.011 16.171 38.699 34.645l31.147 30.805v-280.533h-280.533l30.805 31.147c18.475 18.688 32.341 34.176 34.645 38.699 7.595 14.976 3.797 30.592-11.008 45.397-14.507 14.507-30.763 18.389-45.781 10.88-4.565-2.304-30.421-26.709-71.168-67.157-35.2-34.987-66.603-65.365-69.803-67.541-7.467-5.12-15.915-23.211-15.915-34.091 0-10.155 8.491-29.099 15.019-33.451 2.688-1.792 34.048-32.128 69.76-67.456 43.136-42.667 67.499-65.536 72.491-68.053 15.019-7.552 30.592-3.755 45.397 11.051s18.603 30.421 11.008 45.397c-2.304 4.523-16.171 20.011-34.645 38.699l-30.805 31.147h280.533v-280.533l-31.147 30.805c-17.664 17.451-34.261 32.384-38.315 34.475-14.976 7.552-31.232 3.712-45.781-10.837-14.805-14.805-18.603-30.379-11.051-45.397 2.517-4.992 25.387-29.355 68.053-72.491 35.328-35.712 65.664-67.072 67.456-69.76 4.352-6.528 23.296-15.019 33.451-15.019s29.099 8.491 33.451 15.019c1.792 2.688 32.128 34.048 67.456 69.76 42.667 43.136 65.536 67.499 68.053 72.491 7.552 15.019 3.755 30.592-11.051 45.397-14.549 14.549-30.805 18.389-45.781 10.837-4.053-2.091-20.651-17.024-38.315-34.475l-31.147-30.805v280.533h280.533l-30.805-31.147c-18.475-18.688-32.341-34.176-34.645-38.699-7.595-14.976-3.797-30.592 11.008-45.397s30.379-18.603 45.397-11.051c4.992 2.517 29.355 25.387 72.491 68.053 35.712 35.328 67.072 65.664 69.76 67.456 6.528 4.352 15.019 23.296 15.019 33.451 0 10.88-8.448 28.971-15.915 34.091-3.2 2.176-34.603 32.555-69.803 67.541-40.747 40.448-66.603 64.853-71.168 67.157-15.019 7.509-31.275 3.627-45.781-10.88-14.805-14.805-18.603-30.421-11.008-45.397 2.304-4.523 16.171-20.011 34.645-38.699l30.805-31.147h-280.533v280.533l31.147-30.805c18.688-18.475 34.176-32.341 38.699-34.645 14.976-7.595 30.592-3.797 45.397 11.008s18.603 30.379 11.051 45.397c-2.517 4.992-25.387 29.355-68.053 72.491-35.328 35.712-65.579 66.944-67.243 69.461-1.621 2.475-7.893 6.869-13.867 9.728-14.677 6.997-25.301 6.997-39.851-0.043z" />
<glyph unicode="&#xe91a;" glyph-name="music" d="M629.931 831.147c-142.123-23.808-260.779-44.245-263.68-45.397-8.672-3.384-15.672-9.474-20.122-17.216l-0.102-0.192-3.84-7.168-0.469-210.347c-0.213-115.669-0.811-210.347-1.323-210.347-0.469 0-5.248 2.176-10.624 4.864-21.584 10.436-46.872 16.766-73.581 17.32l-0.19 0.003c-58.24 0-117.205-33.579-146.389-83.328-15.115-24.93-24.060-55.058-24.060-87.276 0-71.241 43.737-132.266 105.825-157.688l1.136-0.412c18.816-7.796 40.667-12.323 63.576-12.323 71.177 0 132.146 43.702 157.538 105.738l0.411 1.135c3.2 8.021 7.381 22.016 9.259 31.189 3.285 16.171 3.371 23.936 3.371 283.861 0 146.987 0.384 267.264 0.896 267.264 0.469 0 95.317 15.744 210.731 34.987s211.029 34.987 212.437 34.987c2.304 0 2.603-20.053 2.603-177.493 0-97.621-0.427-177.493-0.896-177.493-0.512 0-5.291 2.176-10.667 4.864-21.584 10.436-46.872 16.766-73.581 17.32l-0.19 0.003c-58.24 0-117.205-33.579-146.389-83.328-15.115-24.93-24.060-55.058-24.060-87.276 0-71.241 43.737-132.266 105.825-157.688l1.136-0.412c18.764-7.839 40.567-12.393 63.433-12.393 11.446 0 22.626 1.141 33.432 3.316l-1.079-0.181c69.461 14.165 120.832 65.579 134.997 135.083 3.328 16.384 3.413 22.613 2.944 308.181l-0.427 291.499-4.864 9.899c-2.597 5.867-6.561 10.721-11.505 14.309l-0.101 0.070c-13.483 8.917-7.851 9.643-291.413-37.931zM790.315 359.552c32.053-9.17 56.102-35.688 61.542-68.492l0.068-0.5c4.267-27.861-4.011-53.035-24.064-73.131-17.109-17.195-36.523-25.429-59.861-25.429-21.973 0-41.045 7.595-57.472 22.827-56.747 52.736-19.797 147.627 57.472 147.627 6.101 0 16.128-1.323 22.315-2.901zM278.315 274.219c32.053-9.17 56.102-35.688 61.542-68.492l0.068-0.5c4.267-27.861-4.011-53.035-24.064-73.131-17.109-17.195-36.523-25.429-59.861-25.429-21.973 0-41.045 7.595-57.472 22.827-56.747 52.736-19.797 147.627 57.472 147.627 6.101 0 16.128-1.323 22.315-2.901z" />
<glyph unicode="&#xe91b;" glyph-name="navigation" d="M927.573 915.755c-6.912-2.517-756.437-357.035-811.136-383.616-23.125-11.264-30.976-22.827-31.317-46.037-0.213-15.403 6.912-26.624 20.693-32.597 3.285-1.451 78.507-20.779 167.168-42.965l161.195-40.363 40.363-161.493c27.776-110.933 41.643-163.413 44.288-167.723 7.339-11.861 25.515-21.333 40.917-21.333 8.192 0 20.053 6.272 25.856 13.653 4.352 5.547 389.333 816.341 393.771 829.269 6.272 18.389-4.736 44.331-22.485 52.907-9.003 4.395-18.048 4.48-29.312 0.299zM845.867 778.667c-1.323-3.029-62.891-133.035-136.789-288.853 416.040 964.351 369.916 868.757 323.876 773.115l-461.69-1064.102c-3.029-6.699-3.627-7.211-4.907-4.267-0.768 1.877-13.739 52.821-28.757 113.237-15.061 60.416-28.587 112.64-29.995 116.053-3.703 8.525-10.25 15.237-18.418 19.062l-0.228 0.096c-3.755 1.664-56.363 15.403-116.907 30.507-84.705 19.552-122.764 29.501-160.69 39.772l47.197-10.887c-3.072 1.323-2.859 1.707 2.56 4.053 3.285 1.451 136.533 64.512 296.107 140.16s290.347 137.557 290.603 137.6c-0.44-2.093-1.117-3.947-2.019-5.665l0.057 0.119z" />
<glyph unicode="&#xe91c;" glyph-name="navigation-2" d="M502.613 918.229c-1.586-0.517-3.72-1.077-5.89-1.538l-0.468-0.083c-6.187-1.365-16.128-10.24-20.053-17.963-7.083-13.867-304.384-824.021-305.152-831.488-1.152-11.392 3.456-23.552 12.928-34.091 12.032-13.355 23.552-16.555 39.595-10.88 4.011 1.408 70.528 38.699 147.84 82.901l140.587 80.341 139.435-79.701c76.672-43.819 142.421-80.725 146.133-82.005 14.72-5.205 33.664-0.384 46.379 11.861 9.557 9.216 12.459 18.389 9.813 30.933-2.389 11.563-301.653 824.192-306.219 831.659-6.485 10.581-19.115 17.536-35.541 19.669-1.907 0.317-4.103 0.498-6.342 0.498-1.071 0-2.133-0.041-3.183-0.123l0.139 0.009zM620.117 457.771c58.88-159.872 107.477-292.352 108.032-294.4 0.811-3.029-19.2 7.765-96.939 52.181-53.845 30.763-101.205 57.259-105.173 58.88-4.152 1.741-8.976 2.753-14.037 2.753s-9.886-1.012-14.283-2.844l0.246 0.091c-3.968-1.621-51.328-28.117-105.173-58.88-77.739-44.416-97.749-55.211-96.939-52.181 2.304 8.789 215.211 585.003 216.149 585.003 0.555 0 49.237-130.773 108.117-290.603z" />
<glyph unicode="&#xe91d;" glyph-name="octagon" d="M321.707 914.731c-2.001-0.817-4.545-1.663-7.148-2.363l-0.489-0.112c-45.752-44.884-88.776-87.584-131.555-130.529l-0.498-0.5c-104.917-104.789-131.968-132.693-135.253-139.52l-4.053-8.533v-185.173c0.043-182.016 0.085-185.301 3.456-192.853 5.205-11.52 260.011-266.581 272.128-272.384l8.533-4.053h370.347l8.533 4.053c12.117 5.803 266.923 260.864 272.128 272.384 3.371 7.552 3.413 10.795 3.413 192.853s-0.043 185.301-3.413 192.853c-2.688 5.931-33.109 37.376-133.547 137.941-74.325 74.411-132.992 131.84-136.875 133.973l-6.827 3.712-186.027 0.384c-158.891 0.299-187.008 0-192.853-2.133zM783.787 719.787l112.213-112.213v-319.147l-224.427-224.427h-319.147l-224.427 224.427v319.147l224.427 224.427h319.147l112.213-112.213z" />
<glyph unicode="&#xe91e;" glyph-name="package" d="M492.416 915.541c-22.827-3.584-28.373-6.272-112.171-54.229-34.475-19.712-65.195-36.352-68.267-36.992-8.928-2.462-16.596-6.994-22.747-13.062l0.006 0.006c-1.92-2.219-36.309-22.784-76.459-45.696-73.6-42.027-83.584-48.768-99.285-67.029-10.368-12.075-14.549-19.883-21.717-40.619l-5.589-16.213v-385.707l4.011-12.8c10.069-32.256 29.056-57.6 55.765-74.496 13.909-8.789 294.229-168.576 307.157-175.104 6.571-3.285 16.939-7.595 23.040-9.557 6.101-1.92 14.165-4.693 17.92-6.101 8.747-3.243 27.093-3.243 35.84 0 3.755 1.408 11.819 4.181 17.92 6.101 6.101 1.963 16.469 6.272 23.040 9.557 12.928 6.528 293.248 166.315 307.157 175.104 19.936 12.525 35.724 29.996 45.885 50.727l0.323 0.729c14.549 29.525 13.483 12.672 14.080 221.013 0.597 195.712 0.555 196.907-7.296 220.075-7.68 22.485-18.133 37.632-37.888 54.827-8.832 7.68-304.811 178.219-328.277 189.141-5.827 2.747-12.852 5.391-20.104 7.501l-1.059 0.264c-10.124 2.233-21.753 3.512-33.68 3.512-6.202 0-12.324-0.346-18.346-1.019l0.74 0.067zM524.117 829.653c4.139-1.28 69.931-38.059 146.219-81.707l138.752-79.36-52.437-30.293c-39.68-22.955-53.035-29.909-55.083-28.715-1.493 0.896-67.755 39.125-147.328 84.949-79.531 45.824-144.64 83.797-144.64 84.395 0.043 1.707 83.243 48.64 90.069 50.816 3.607 1.281 7.768 2.021 12.101 2.021 4.425 0 8.669-0.772 12.607-2.187l-0.26 0.082zM468.053 645.76c109.019-60.601 157.246-89.037 205.268-117.783l-57.641 31.98c1.664-1.536-9.429-8.661-49.408-31.787-28.331-16.427-52.779-29.824-54.272-29.824s-68.949 38.315-149.888 85.12l-147.2 85.12 53.376 30.507c29.397 16.768 53.589 30.507 53.845 30.507 0.213 0 65.877-37.717 145.92-83.84zM321.451 508.587l147.755-85.333 0.085-170.24c0-93.653-0.341-170.24-0.811-170.24s-63.573 35.84-140.245 79.659c-97.792 55.851-141.312 81.621-145.877 86.357-12.16 12.544-11.691 5.163-11.691 185.173 0 94.635 0.64 160.853 1.536 160.512 0.853-0.299 68.011-38.955 149.248-85.888zM853.333 433.792c0-179.84 0.469-172.459-11.691-185.003-4.565-4.736-48.085-30.507-145.877-86.357 27.953 13.026-17.882-13.398-63.864-39.594l-76.382-40.065c-0.469 0-0.811 76.587-0.811 170.24l0.043 170.24 76.971 44.373c42.325 24.405 80.853 46.123 85.632 48.256 4.779 2.176 10.155 5.248 11.904 6.827 3.285 3.029 120.533 71.68 122.795 71.936 0.725 0.085 1.28-72.32 1.28-160.853z" />
<glyph unicode="&#xe91f;" glyph-name="paperclip" d="M637.44 940.203c-36.074-6.722-67.918-21.342-94.86-42.029l0.524 0.386c-8.917-6.955-98.347-95.232-223.275-220.416-225.707-226.133-220.8-220.843-241.963-260.907-14.942-27.889-26.131-60.288-31.793-94.552l-0.25-1.832c-2.816-17.579-2.816-69.419 0-87.040 16.171-100.309 78.251-183.68 168.363-226.219 37.258-18.074 81.041-28.638 127.291-28.638 51.158 0 99.297 12.925 141.33 35.688l-1.571-0.778c40.107 21.205 34.688 16.171 261.376 242.56 149.845 149.675 210.347 211.115 213.035 216.533 7.467 14.976 3.584 31.061-10.965 45.397-15.147 14.891-29.739 18.56-45.141 11.307-5.973-2.816-56.875-52.608-216.875-212.224-220.416-219.861-216.789-216.491-247.253-231.296-25.157-12.883-54.771-20.756-86.144-21.542l-0.256-0.005c-92.885-3.925-179.285 55.637-209.323 144.341-7.090 20.388-11.185 43.888-11.185 68.344 0 48.362 16.012 92.984 43.025 128.853l-0.395-0.547c5.419 7.253 98.048 100.992 219.093 221.781l209.664 209.237 16.213 7.851c16.65 8.41 36.293 13.336 57.087 13.336 20.862 0 40.565-4.958 57.997-13.759l-0.738 0.338c13.824-6.741 18.603-10.283 32.597-24.235 13.952-13.909 17.493-18.688 24.32-32.512 9.728-19.669 12.971-34.304 13.013-58.197 0.043-30.037-7.808-53.888-25.344-76.715-13.824-18.048-407.808-410.155-415.701-413.781-5.293-2.566-11.513-4.066-18.083-4.066-22.207 0-40.411 17.137-42.11 38.908l-0.009 0.146c-1.92 20.907-14.933 6.4 193.28 215.040 128.469 128.725 189.355 190.848 191.787 195.755 2.202 4.366 3.491 9.517 3.491 14.969 0 5.846-1.482 11.345-4.092 16.142l0.088-0.178c-6.177 10.49-14.667 19.007-24.808 25.038l-0.323 0.178c-7.851 4.139-22.656 4.139-31.36 0-7.851-3.755-370.176-364.117-386.56-384.469-17.621-21.888-25.387-42.837-26.837-72.405-1.195-23.936 2.347-41.643 12.331-62.123 15.957-32.054 43.762-56.204 77.539-66.988l0.925-0.255c17.749-5.419 51.669-6.016 69.077-1.237 14.080 3.883 29.568 11.051 39.552 18.347 4.352 3.157 100.821 98.304 214.443 211.413 144.085 143.445 209.621 209.835 216.704 219.52 26.256 35.108 42.040 79.375 42.040 127.329 0 25.536-4.476 50.027-12.686 72.731l0.471-1.489c-10.886 30.461-27.626 56.472-49.021 77.821l-0.003 0.003c-41.899 42.325-94.549 64.171-153.472 63.701-12.174-0.098-24.042-1.025-35.657-2.728l1.396 0.168z" />
<glyph unicode="&#xe920;" glyph-name="pause" d="M239.531 829.568c-9.351-2.542-16.968-8.642-21.456-16.719l-0.090-0.177-3.797-7.125-0.427-353.877c-0.299-233.685 0.128-356.096 1.28-360.277 2.56-9.643 8.661-17.536 17.152-22.272l7.595-4.267 97.749-0.469c63.189-0.341 100.053 0.128 104.277 1.28 9.678 2.531 17.591 8.745 22.307 17.018l0.093 0.177 4.267 7.595v715.093l-3.797 7.125c-4.523 8.405-11.477 13.739-22.187 16.981-11.051 3.328-192.299 3.243-202.965-0.085zM580.864 829.568c-9.351-2.542-16.968-8.642-21.456-16.719l-0.090-0.177-3.797-7.125-0.427-353.877c-0.299-233.685 0.128-356.096 1.28-360.277 2.56-9.643 8.661-17.536 17.152-22.272l7.595-4.267 97.749-0.469c63.189-0.341 100.053 0.128 104.277 1.28 9.678 2.531 17.591 8.745 22.307 17.018l0.093 0.177 4.267 7.595v715.093l-3.797 7.125c-4.523 8.405-11.477 13.739-22.187 16.981-11.051 3.328-192.299 3.243-202.965-0.085zM384 448v-298.667h-85.333v597.333h85.333v-298.667zM725.333 448v-298.667h-85.333v597.333h85.333v-298.667z" />
<glyph unicode="&#xe921;" glyph-name="pause-circle" d="M481.28 916.352l-23.893-2.56c-80.555-8.533-159.104-40.107-228.693-91.819-25.984-19.328-71.509-64.853-91.051-90.965-106.581-142.805-124.8-327.040-48.171-486.955 23.296-48.555 50.304-86.229 91.349-127.232 41.003-41.045 78.677-68.053 127.232-91.349 159.872-76.629 344.235-58.325 487.125 48.341 25.984 19.371 71.637 65.024 91.008 91.008 126.891 170.027 126.891 396.331 0 566.357-19.371 25.941-64.981 71.552-90.88 90.795-68.053 50.603-139.733 80-222.592 91.264-18.048 2.475-78.891 4.523-91.435 3.115zM568.32 827.691c109.355-16.512 204.971-78.080 266.24-171.477 12.928-19.755 31.701-57.984 39.765-81.067 14.763-42.368 20.693-78.72 20.693-127.147 0-63.701-10.965-111.829-38.272-168.107-30.080-62.037-75.477-113.792-134.528-153.259-33.664-22.528-87.509-45.056-128.811-53.973-24.244-5.414-52.089-8.515-80.658-8.515-91.486 0-175.543 31.805-241.717 84.962l0.754-0.586c-64.555 51.712-112.981 127.573-132.395 207.317-7.936 32.555-10.411 54.272-10.411 92.16 0 63.701 10.965 111.829 38.272 168.107 45.622 92.339 124.633 162.383 220.876 195.211l2.698 0.799c30.080 9.941 54.272 14.848 93.013 18.859 13.739 1.408 67.029-0.64 84.48-3.285zM410.197 616.235c-9.351-2.542-16.968-8.642-21.456-16.719l-0.090-0.177-3.797-7.125-0.469-140.459c-0.299-91.648 0.128-142.72 1.28-146.944 4.48-16.683 16.853-25.813 36.565-27.093 20.693-1.323 34.261 4.651 41.984 18.475l4.267 7.595v288.427l-3.797 7.125c-2.391 4.254-5.427 7.848-9.021 10.784l-0.067 0.053c-11.264 8.064-30.763 10.624-45.397 6.059zM580.864 616.235c-9.351-2.542-16.968-8.642-21.456-16.719l-0.090-0.177-3.797-7.125-0.469-140.459c-0.299-91.648 0.128-142.72 1.28-146.944 4.48-16.683 16.853-25.813 36.565-27.093 20.693-1.323 34.261 4.651 41.984 18.475l4.267 7.595v288.427l-3.797 7.125c-2.391 4.254-5.427 7.848-9.021 10.784l-0.067 0.053c-11.264 8.064-30.763 10.624-45.397 6.059z" />
<glyph unicode="&#xe922;" glyph-name="pen-tool" d="M69.845 916.693c-11.605-4.139-16.725-9.301-24.576-24.875-5.376-10.624-6.187-22.229-2.133-30.080 1.408-2.731 35.669-142.080 76.16-309.632 40.448-167.552 74.368-307.584 75.392-311.168 2.475-8.96 15.872-22.485 24.619-24.875 3.755-1.024 60.971-12.629 127.147-25.856 66.176-13.184 121.301-24.32 122.539-24.704 1.707-0.597 1.749-1.579 0.213-4.437-3.2-6.016-2.347-18.859 1.792-27.221 5.291-10.539 142.976-148.224 153.515-153.515 4.509-2.32 9.84-3.68 15.488-3.68s10.979 1.36 15.682 3.77l-0.194-0.090c5.376 2.688 52.523 48.725 163.968 160.213 111.488 111.445 157.525 158.592 160.213 163.968 2.32 4.509 3.68 9.84 3.68 15.488s-1.36 10.979-3.77 15.682l0.090-0.194c-5.248 10.453-142.976 148.224-153.429 153.429-3.838 2.097-8.407 3.331-13.264 3.331-1.341 0-2.66-0.094-3.952-0.276l0.149 0.017c-5.291-0.341-10.667-0.981-11.989-1.408-1.92-0.597-7.637 25.301-27.477 124.117-13.781 68.693-26.069 127.275-27.264 130.219-3.968 9.557-15.744 18.091-30.379 21.973-7.253 1.963-147.115 35.883-310.784 75.349-163.669 39.509-299.776 72.917-302.421 74.283-5.888 3.072-20.736 3.157-29.013 0.171zM446.891 743.424c120.448-29.056 219.435-53.248 219.947-53.76 0.555-0.512 13.099-61.44 27.904-135.381l26.965-134.443-181.547-181.547-134.443 26.965c-73.941 14.805-134.869 27.349-135.381 27.904-0.512 0.512-24.704 99.499-53.76 219.947-102.183 476.042-120.706 550.476-139.371 624.854l85.696-403.243c-0.512 1.408 42.069-40.448 94.635-93.013l95.531-95.573-5.376-15.36c-4.949-14.293-5.333-17.024-5.419-39.253-0.085-20.437 0.512-25.728 3.925-36.693 13.117-41.864 45.432-74.179 86.363-87.043l0.933-0.253c18.517-5.76 53.163-5.76 71.68 0 41.864 13.117 74.179 45.432 87.043 86.363l0.253 0.933c5.76 18.517 5.76 53.163 0 71.68-12.989 41.537-44.95 73.638-85.472 86.571l-0.928 0.256c-11.648 3.541-17.195 4.181-36.736 4.181-19.84 0-24.917-0.597-36.693-4.309-7.893-2.357-13.282-4.188-18.608-6.146l2.395 0.77c-1.835-0.811-30.293 26.624-98.133 94.507-52.565 52.608-94.421 95.275-93.013 94.805 1.408-0.512 101.12-24.661 221.611-53.717zM482.56 530.731c16.128-4.779 29.44-22.912 29.44-40.107 0-14.080-9.216-29.653-22.016-37.163-6.656-3.883-9.813-4.608-20.651-4.608s-13.995 0.725-20.651 4.608c-24.789 14.592-29.141 46.848-9.045 66.944 11.904 11.904 26.112 15.317 42.923 10.325zM844.8 353.28l33.28-33.28-238.080-238.080-67.413 67.413 118.613 118.613c39.314 39.583 78.238 78.237 117.427 116.622l2.039 1.991c0.512 0 15.872-14.976 34.133-33.28z" />
<glyph unicode="&#xe923;" glyph-name="percent" d="M250.581 829.44c-32.438-6.248-60.434-22.135-81.642-44.518l-0.064-0.068c-17.024-18.005-27.477-36.352-35.2-61.568-4.053-13.44-4.565-17.707-4.565-40.619s0.512-27.179 4.565-40.619c25.259-82.816 108.416-127.019 190.080-101.077 43.349 13.781 81.451 51.84 95.232 95.147 5.248 16.469 7.637 31.189 7.637 46.549-0.584 68.886-47.322 126.695-110.773 144.052l-1.057 0.246c-17.877 4.651-46.848 5.76-64.213 2.475zM794.453 787.371c-10.197-5.205-617.173-612.651-622.123-622.549-7.467-15.061-3.669-30.635 11.093-45.397s30.336-18.56 45.397-11.093c10.752 5.376 617.472 612.096 622.848 622.848 7.467 15.061 3.669 30.635-11.093 45.397-14.464 14.507-31.275 18.432-46.123 10.795zM303.744 740.565c12.715-5.803 25.941-19.157 31.829-32.128 4.053-8.917 4.736-12.629 4.736-25.771s-0.683-16.853-4.736-25.771c-5.973-13.184-19.115-26.283-32.64-32.597-8.832-4.139-12.373-4.779-25.6-4.779s-16.768 0.64-25.6 4.779c-14.247 7.097-25.526 18.362-32.453 32.185l-0.187 0.412c-4.053 8.875-4.736 12.629-4.736 25.771-0.043 13.184 0.64 16.811 4.693 25.6 8.235 18.005 26.24 32.896 44.373 36.736 11.392 2.432 29.696 0.384 40.32-4.437zM719.915 360.107c-32.438-6.248-60.434-22.135-81.642-44.518l-0.064-0.068c-17.024-18.005-27.477-36.352-35.2-61.568-4.053-13.44-4.565-17.707-4.565-40.619s0.512-27.179 4.565-40.619c25.259-82.816 108.416-127.019 190.080-101.077 43.349 13.781 81.451 51.84 95.232 95.147 5.248 16.469 7.637 31.189 7.637 46.549-0.584 68.886-47.322 126.695-110.773 144.052l-1.057 0.246c-17.877 4.651-46.848 5.76-64.213 2.475zM773.077 271.232c12.715-5.803 25.941-19.157 31.829-32.128 4.053-8.917 4.736-12.629 4.736-25.771s-0.683-16.853-4.736-25.771c-5.973-13.184-19.115-26.283-32.64-32.597-8.832-4.139-12.373-4.779-25.6-4.779s-16.768 0.64-25.6 4.779c-14.247 7.097-25.526 18.362-32.453 32.185l-0.187 0.412c-4.053 8.875-4.736 12.629-4.736 25.771-0.043 13.184 0.64 16.811 4.693 25.6 8.235 18.005 26.24 32.896 44.373 36.736 11.392 2.432 29.696 0.384 40.32-4.437z" />
<glyph unicode="&#xe924;" glyph-name="phone" d="M154.453 915.541c-40.047-7.175-73.173-31.893-91.65-65.753l-0.339-0.679c-15.104-28.971-17.664-54.229-10.496-103.296 17.28-118.443 54.443-224.725 113.28-324.267 70.101-118.571 161.92-216.661 270.635-289.195 93.483-62.421 182.699-102.613 283.477-127.872 51.285-12.843 109.611-22.4 136.619-22.4 46.336 0 91.904 29.312 112.469 72.32 12.117 25.344 12.032 24.576 12.032 121.387 0 86.485-0.043 87.125-4.011 99.84-12.8 41.003-43.136 72.619-82.475 85.931-7.67 2.224-17.467 4.393-27.446 6.019l-1.568 0.211c-40.704 6.784-53.461 9.984-96.981 24.277-24.533 8.064-27.947 8.747-47.019 9.472-17.323 0.64-22.955 0.171-35.84-3.029-27.563-6.912-42.027-15.872-71.040-43.989l-20.011-19.456-8.192 5.547c-40.875 27.691-66.56 48.768-99.541 81.749-26.051 25.519-49.606 53.381-70.392 83.311l-1.245 1.894-15.744 22.443 19.499 20.053c20.736 21.376 28.245 31.147 35.584 46.293 9.216 19.157 10.965 27.947 10.88 55.595l-0.043 25.6-9.856 29.867c-9.056 25.121-16.803 55.069-21.861 85.922l-0.411 3.038c-2.159 13.394-4.624 24.633-7.634 35.646l0.551-2.366c-11.195 32.702-34.287 58.847-63.989 73.776l-0.737 0.336c-25.643 12.629-24.448 12.501-116.053 12.885-45.056 0.213-85.76-0.299-90.453-1.109zM316.117 830.208c8.704-2.389 20.139-11.477 24.704-19.584 2.048-3.669 4.992-13.995 6.528-22.955 7.253-42.581 14.379-71.168 27.221-109.184 7.083-20.949 7.723-32.811 2.475-44.459-2.389-5.333-13.312-17.621-35.627-40.107-18.688-18.859-33.621-35.413-35.712-39.595-4.992-9.899-4.779-22.699 0.512-34.091 4.821-10.283 25.813-44.16 38.613-62.208 52.13-73.049 114.913-134.556 186.814-183.704l2.541-1.64c41.173-27.52 54.912-34.56 67.413-34.56 14.976 0.043 21.035 4.309 57.899 40.661 36.949 36.352 39.083 37.803 56.747 37.803 5.12 0 15.36-2.347 26.24-6.016 37.419-12.672 66.091-19.883 104.533-26.283 12.501-2.091 22.827-4.864 27.221-7.296 8.405-4.651 17.493-16 19.968-24.875 2.219-7.979 2.347-143.531 0.171-153.003-3.627-15.488-19.883-29.781-35.669-31.275-15.701-1.536-80.341 9.173-123.136 20.352-175.36 45.824-334.549 151.851-441.387 294.101-77.013 102.485-127.445 214.827-150.613 335.36-6.741 34.944-11.307 72.661-9.813 80.512 1.365 7.339 10.24 21.077 16.512 25.685 10.453 7.68 14.123 7.979 88.661 8.064 43.776 0.043 73.259-0.597 77.184-1.707z" />
<glyph unicode="&#xe925;" glyph-name="phone-call" d="M625.963 958.421c-9.601-2.809-17.253-9.567-21.206-18.35l-0.085-0.21c-4.053-8.32-4.779-11.819-4.779-24.235 0-12.757 0.555-15.488 4.693-22.485 6.699-11.435 16.341-15.573 48.213-20.864 40.363-6.699 70.443-16.555 104.235-34.261 62.569-32.693 112.365-82.517 144.142-143.257l0.882-1.852c17.451-33.237 27.435-63.531 34.133-103.253 5.077-30.251 7.637-37.333 16.043-44.971 11.008-9.941 27.605-11.691 48.171-5.163 10.211 3.871 18.117 11.819 21.847 21.802l0.084 0.256c4.096 12.416-1.963 55.765-13.056 93.781-40.533 138.667-152.192 249.941-290.816 289.835-38.101 10.965-80.725 17.067-92.501 13.227zM154.453 915.541c-41.018-7.207-74.797-33.054-92.762-68.307l-0.337-0.728c-14.464-29.269-16.469-51.413-9.216-101.547 16.896-116.907 54.4-224.128 113.109-323.413 70.101-118.571 161.92-216.661 270.635-289.195 93.483-62.421 182.699-102.613 283.477-127.872 51.285-12.843 109.611-22.4 136.619-22.4 46.336 0 91.904 29.312 112.469 72.32 12.117 25.344 12.032 24.576 12.032 121.387 0 86.485-0.043 87.125-4.011 99.84-12.8 41.003-43.136 72.619-82.475 85.931-7.67 2.224-17.467 4.393-27.446 6.019l-1.568 0.211c-40.704 6.784-53.461 9.984-96.981 24.277-24.533 8.064-27.947 8.747-47.019 9.472-17.323 0.64-22.955 0.171-35.84-3.029-27.563-6.912-42.027-15.872-71.040-43.989l-20.011-19.456-8.192 5.547c-40.875 27.691-66.56 48.768-99.541 81.749-26.051 25.519-49.606 53.381-70.392 83.311l-1.245 1.894-15.744 22.443 19.499 20.053c32.811 33.835 42.837 52.565 47.232 88.235 2.475 20.139 0.085 35.328-10.837 69.035-8.908 25.066-16.595 55.045-21.674 85.904l-0.427 3.142c-2.159 13.394-4.624 24.633-7.634 35.646l0.551-2.366c-11.195 32.702-34.287 58.847-63.989 73.776l-0.737 0.336c-25.643 12.629-24.448 12.501-116.053 12.885-45.056 0.213-85.76-0.299-90.453-1.109zM316.117 830.208c8.704-2.389 20.139-11.477 24.704-19.584 2.048-3.669 4.992-13.995 6.528-22.955 7.253-42.581 14.379-71.168 27.221-109.184 7.083-20.949 7.723-32.811 2.475-44.459-2.389-5.333-13.312-17.621-35.627-40.107-18.688-18.859-33.621-35.413-35.712-39.595-4.992-9.899-4.779-22.699 0.512-34.091 4.821-10.283 25.813-44.16 38.613-62.208 52.13-73.049 114.913-134.556 186.814-183.704l2.541-1.64c41.173-27.52 54.912-34.56 67.413-34.56 14.976 0.043 21.035 4.309 57.899 40.661 36.949 36.352 39.083 37.803 56.747 37.803 5.12 0 15.36-2.347 26.24-6.016 37.419-12.672 66.091-19.883 104.533-26.283 12.501-2.091 22.827-4.864 27.221-7.296 8.405-4.651 17.493-16 19.968-24.875 2.219-7.979 2.347-143.531 0.171-153.003-3.627-15.488-19.883-29.781-35.669-31.275-15.701-1.536-80.341 9.173-123.136 20.352-175.36 45.824-334.549 151.851-441.387 294.101-77.013 102.485-127.445 214.827-150.613 335.36-6.741 34.944-11.307 72.661-9.813 80.512 1.365 7.339 10.24 21.077 16.512 25.685 10.453 7.68 14.123 7.979 88.661 8.064 43.776 0.043 73.259-0.597 77.184-1.707zM621.952 786.901c-8.064-3.499-17.024-15.189-20.139-26.325-5.291-18.901-3.072-32.555 7.040-43.179 6.571-6.912 13.269-9.856 34.133-14.976 60.703-15.875 107.56-62.732 123.169-122.244l0.265-1.191c1.92-7.723 4.651-17.237 6.101-21.163 3.157-8.448 12.885-18.176 20.907-20.864 20.139-6.699 50.56 4.608 57.557 21.376 5.504 13.184 0.512 42.411-13.013 76.075-29.867 74.496-98.56 133.291-177.109 151.637-16.341 3.797-31.403 4.139-38.912 0.853z" />
<glyph unicode="&#xe926;" glyph-name="phone-forwarded" d="M789.675 954.752c-14.123-9.387-23.765-24.533-23.765-37.376 0-14.251 4.48-19.925 59.819-75.563l52.224-52.48h-122.965c-131.413 0-132.053-0.043-143.915-8.491-9.472-6.741-12.885-15.744-12.885-34.176 0-14.123 0.555-17.195 4.267-23.808 4.693-8.405 12.544-14.507 21.973-17.109 3.883-1.109 52.267-1.749 129.877-1.749h123.648l-52.224-52.48c-34.347-34.517-53.504-55.083-56.021-60.032-7.552-15.019-3.755-30.592 11.051-45.397s30.379-18.603 45.397-11.051c5.163 2.603 34.944 30.976 93.781 89.344 47.445 47.061 88.405 87.040 91.093 88.789 12.544 8.363 17.195 37.12 8.875 54.997-2.321 5.039-5.63 9.263-9.707 12.579l-0.064 0.050c-3.157 2.176-44.16 42.112-91.093 88.832-46.933 46.677-87.808 86.101-90.795 87.637-3.541 1.749-9.856 2.731-18.048 2.731-11.221 0-13.483-0.597-20.523-5.248zM154.453 915.541c-40.047-7.175-73.173-31.893-91.65-65.753l-0.339-0.679c-15.104-28.971-17.664-54.229-10.496-103.296 17.28-118.443 54.443-224.725 113.28-324.267 70.101-118.571 161.92-216.661 270.635-289.195 93.483-62.421 182.699-102.613 283.477-127.872 51.285-12.843 109.611-22.4 136.619-22.4 46.336 0 91.904 29.312 112.469 72.32 12.117 25.344 12.032 24.576 12.032 121.387 0 86.485-0.043 87.125-4.011 99.84-12.8 41.003-43.136 72.619-82.475 85.931-7.67 2.224-17.467 4.393-27.446 6.019l-1.568 0.211c-40.704 6.784-53.461 9.984-96.981 24.277-24.533 8.064-27.947 8.747-47.019 9.472-17.323 0.64-22.955 0.171-35.84-3.029-27.563-6.912-42.027-15.872-71.040-43.989l-20.011-19.456-8.192 5.547c-40.875 27.691-66.56 48.768-99.541 81.749-26.051 25.519-49.606 53.381-70.392 83.311l-1.245 1.894-15.744 22.443 19.499 20.053c20.736 21.376 28.245 31.147 35.584 46.293 9.216 19.157 10.965 27.947 10.88 55.595l-0.043 25.6-9.856 29.867c-9.056 25.121-16.803 55.069-21.861 85.922l-0.411 3.038c-2.159 13.394-4.624 24.633-7.634 35.646l0.551-2.366c-11.195 32.702-34.287 58.847-63.989 73.776l-0.737 0.336c-25.643 12.629-24.448 12.501-116.053 12.885-45.056 0.213-85.76-0.299-90.453-1.109zM316.117 830.208c8.704-2.389 20.139-11.477 24.704-19.584 2.048-3.669 4.992-13.995 6.528-22.955 7.253-42.581 14.379-71.168 27.221-109.184 7.083-20.949 7.723-32.811 2.475-44.459-2.389-5.333-13.312-17.621-35.627-40.107-18.688-18.859-33.621-35.413-35.712-39.595-4.992-9.899-4.779-22.699 0.512-34.091 4.821-10.283 25.813-44.16 38.613-62.208 52.13-73.049 114.913-134.556 186.814-183.704l2.541-1.64c41.173-27.52 54.912-34.56 67.413-34.56 14.976 0.043 21.035 4.309 57.899 40.661 36.949 36.352 39.083 37.803 56.747 37.803 5.12 0 15.36-2.347 26.24-6.016 37.419-12.672 66.091-19.883 104.533-26.283 12.501-2.091 22.827-4.864 27.221-7.296 8.405-4.651 17.493-16 19.968-24.875 2.219-7.979 2.347-143.531 0.171-153.003-3.627-15.488-19.883-29.781-35.669-31.275-15.701-1.536-80.341 9.173-123.136 20.352-175.36 45.824-334.549 151.851-441.387 294.101-77.013 102.485-127.445 214.827-150.613 335.36-6.741 34.944-11.307 72.661-9.813 80.512 1.365 7.339 10.24 21.077 16.512 25.685 10.453 7.68 14.123 7.979 88.661 8.064 43.776 0.043 73.259-0.597 77.184-1.707z" />
<glyph unicode="&#xe927;" glyph-name="phone-incoming" d="M962.56 956.416c-3.285-1.963-57.984-55.467-121.515-118.912l-115.541-115.413-0.512 84.395c-0.512 83.541-0.555 84.48-4.309 91.52-4.523 8.405-11.477 13.739-22.187 16.981-21.717 6.528-45.227-0.896-53.845-16.981l-3.797-7.125-1.152-134.827c-0.475-65.645-0.939-114.881-1.489-164.096l0.209 23.765c-0.171-5.931 6.741-23.083 11.477-28.416 4.224-4.821 23.253-13.013 29.739-12.885 25.363 0.34 74.634 0.803 123.925 1.181l16.491 0.099c133.504 1.152 134.912 1.195 141.653 4.821 14.293 7.637 18.688 16.64 18.688 38.144 0 18.475-3.371 27.477-12.8 34.176-11.392 8.149-15.659 8.491-101.291 8.491h-80.341l116.267 116.48c63.957 64.085 117.504 118.955 119.040 121.941 3.243 6.443 3.712 27.819 0.768 33.493-4.962 8.694-11.588 15.892-19.498 21.364l-0.214 0.14c-7.083 4.693-9.259 5.248-20.864 5.248-10.027 0-14.251-0.811-18.901-3.584zM154.453 915.541c-40.047-7.175-73.173-31.893-91.65-65.753l-0.339-0.679c-15.104-28.971-17.664-54.229-10.496-103.296 17.28-118.443 54.443-224.725 113.28-324.267 70.101-118.571 161.92-216.661 270.635-289.195 93.483-62.421 182.699-102.613 283.477-127.872 51.285-12.843 109.611-22.4 136.619-22.4 46.336 0 91.904 29.312 112.469 72.32 12.117 25.344 12.032 24.576 12.032 121.387 0 86.485-0.043 87.125-4.011 99.84-12.8 41.003-43.136 72.619-82.475 85.931-7.67 2.224-17.467 4.393-27.446 6.019l-1.568 0.211c-40.704 6.784-53.461 9.984-96.981 24.277-24.533 8.064-27.947 8.747-47.019 9.472-17.323 0.64-22.955 0.171-35.84-3.029-27.563-6.912-42.027-15.872-71.040-43.989l-20.011-19.456-8.192 5.547c-40.875 27.691-66.56 48.768-99.541 81.749-26.051 25.519-49.606 53.381-70.392 83.311l-1.245 1.894-15.744 22.443 19.499 20.053c20.736 21.376 28.245 31.147 35.584 46.293 9.216 19.157 10.965 27.947 10.88 55.595l-0.043 25.6-9.856 29.867c-9.056 25.121-16.803 55.069-21.861 85.922l-0.411 3.038c-2.159 13.394-4.624 24.633-7.634 35.646l0.551-2.366c-11.195 32.702-34.287 58.847-63.989 73.776l-0.737 0.336c-25.643 12.629-24.448 12.501-116.053 12.885-45.056 0.213-85.76-0.299-90.453-1.109zM316.117 830.208c8.704-2.389 20.139-11.477 24.704-19.584 2.048-3.669 4.992-13.995 6.528-22.955 7.253-42.581 14.379-71.168 27.221-109.184 7.083-20.949 7.723-32.811 2.475-44.459-2.389-5.333-13.312-17.621-35.627-40.107-18.688-18.859-33.621-35.413-35.712-39.595-4.992-9.899-4.779-22.699 0.512-34.091 4.821-10.283 25.813-44.16 38.613-62.208 52.13-73.049 114.913-134.556 186.814-183.704l2.541-1.64c41.173-27.52 54.912-34.56 67.413-34.56 14.976 0.043 21.035 4.309 57.899 40.661 36.949 36.352 39.083 37.803 56.747 37.803 5.12 0 15.36-2.347 26.24-6.016 37.419-12.672 66.091-19.883 104.533-26.283 12.501-2.091 22.827-4.864 27.221-7.296 8.405-4.651 17.493-16 19.968-24.875 2.219-7.979 2.347-143.531 0.171-153.003-3.627-15.488-19.883-29.781-35.669-31.275-15.701-1.536-80.341 9.173-123.136 20.352-175.36 45.824-334.549 151.851-441.387 294.101-77.013 102.485-127.445 214.827-150.613 335.36-6.741 34.944-11.307 72.661-9.813 80.512 1.365 7.339 10.24 21.077 16.512 25.685 10.453 7.68 14.123 7.979 88.661 8.064 43.776 0.043 73.259-0.597 77.184-1.707z" />
<glyph unicode="&#xe928;" glyph-name="phone-missed" d="M704.341 954.752c-14.123-9.387-23.765-24.533-23.765-37.376 0-14.251 4.48-19.925 59.819-75.563l52.224-52.48-52.224-52.48c-55.339-55.595-59.819-61.312-59.819-75.52 0-20.352 24.405-44.757 44.757-44.757 14.208 0 19.925 4.48 75.52 59.819l52.48 52.224 52.48-52.224c55.637-55.339 61.312-59.819 75.563-59.819 12.843 0 27.989 9.643 37.376 23.765 4.651 7.040 5.248 9.301 5.248 20.523 0 8.235-0.939 14.464-2.773 18.048-1.536 2.987-26.24 29.056-54.955 57.941l-52.224 52.48 52.224 52.48c28.715 28.843 53.419 54.955 54.955 57.941 1.835 3.584 2.773 9.813 2.773 18.048 0 11.221-0.597 13.483-5.248 20.523-5.612 8.124-12.81 14.75-21.189 19.546l-0.315 0.166c-5.675 2.987-27.051 2.475-33.493-0.811-2.987-1.536-29.056-26.24-57.941-54.955l-52.48-52.224-52.48 52.224c-28.885 28.715-54.955 53.419-57.941 54.955-3.584 1.835-9.813 2.773-18.048 2.773-11.221 0-13.483-0.597-20.523-5.248zM154.453 915.541c-40.047-7.175-73.173-31.893-91.65-65.753l-0.339-0.679c-15.104-28.971-17.664-54.229-10.496-103.296 17.28-118.443 54.443-224.725 113.28-324.267 70.101-118.571 161.92-216.661 270.635-289.195 93.483-62.421 182.699-102.613 283.477-127.872 51.285-12.843 109.611-22.4 136.619-22.4 46.336 0 91.904 29.312 112.469 72.32 12.117 25.344 12.032 24.576 12.032 121.387 0 86.485-0.043 87.125-4.011 99.84-12.8 41.003-43.136 72.619-82.475 85.931-7.67 2.224-17.467 4.393-27.446 6.019l-1.568 0.211c-40.704 6.784-53.461 9.984-96.981 24.277-24.533 8.064-27.947 8.747-47.019 9.472-17.323 0.64-22.955 0.171-35.84-3.029-27.563-6.912-42.027-15.872-71.040-43.989l-20.011-19.456-8.192 5.547c-40.875 27.691-66.56 48.768-99.541 81.749-26.051 25.519-49.606 53.381-70.392 83.311l-1.245 1.894-15.744 22.443 19.499 20.053c20.736 21.376 28.245 31.147 35.584 46.293 9.216 19.157 10.965 27.947 10.88 55.595l-0.043 25.6-9.856 29.867c-9.056 25.121-16.803 55.069-21.861 85.922l-0.411 3.038c-2.159 13.394-4.624 24.633-7.634 35.646l0.551-2.366c-11.195 32.702-34.287 58.847-63.989 73.776l-0.737 0.336c-25.643 12.629-24.448 12.501-116.053 12.885-45.056 0.213-85.76-0.299-90.453-1.109zM316.117 830.208c8.704-2.389 20.139-11.477 24.704-19.584 2.048-3.669 4.992-13.995 6.528-22.955 7.253-42.581 14.379-71.168 27.221-109.184 7.083-20.949 7.723-32.811 2.475-44.459-2.389-5.333-13.312-17.621-35.627-40.107-18.688-18.859-33.621-35.413-35.712-39.595-4.992-9.899-4.779-22.699 0.512-34.091 4.821-10.283 25.813-44.16 38.613-62.208 52.13-73.049 114.913-134.556 186.814-183.704l2.541-1.64c41.173-27.52 54.912-34.56 67.413-34.56 14.976 0.043 21.035 4.309 57.899 40.661 36.949 36.352 39.083 37.803 56.747 37.803 5.12 0 15.36-2.347 26.24-6.016 37.419-12.672 66.091-19.883 104.533-26.283 12.501-2.091 22.827-4.864 27.221-7.296 8.405-4.651 17.493-16 19.968-24.875 2.219-7.979 2.347-143.531 0.171-153.003-3.627-15.488-19.883-29.781-35.669-31.275-15.701-1.536-80.341 9.173-123.136 20.352-175.36 45.824-334.549 151.851-441.387 294.101-77.013 102.485-127.445 214.827-150.613 335.36-6.741 34.944-11.307 72.661-9.813 80.512 1.365 7.339 10.24 21.077 16.512 25.685 10.453 7.68 14.123 7.979 88.661 8.064 43.776 0.043 73.259-0.597 77.184-1.707z" />
<glyph unicode="&#xe929;" glyph-name="phone-off" d="M960.725 954.965c-10.325-6.912-954.581-951.893-957.995-958.72-1.749-3.541-2.731-9.941-2.731-18.048 0-11.221 0.597-13.483 5.248-20.523 5.077-7.68 13.824-15.701 21.504-19.712 5.632-2.944 27.051-2.475 33.493 0.768 2.987 1.536 66.261 63.445 140.544 137.643l135.083 134.869 21.077-17.792c27.904-23.595 52.267-42.112 78.123-59.392 122.581-82.048 251.435-130.944 390.955-148.437 21.205-2.688 29.312-2.987 40.747-1.707 45.184 5.163 84.309 33.28 102.443 73.515 11.563 25.771 11.264 22.443 11.264 118.357 0 86.485-0.043 87.125-4.011 99.84-12.8 41.003-43.136 72.619-82.475 85.931-7.67 2.224-17.467 4.393-27.446 6.019l-1.568 0.211c-40.704 6.784-53.461 9.984-96.981 24.277-24.533 8.064-27.947 8.747-47.019 9.472-17.323 0.64-22.955 0.171-35.84-3.029-27.563-6.912-42.027-15.872-71.083-44.032l-20.053-19.499-21.205 14.891c-15.168 10.768-27.644 20.263-39.824 30.109l1.509-1.181-17.109 14.037 248.277 248.149c136.533 136.491 250.539 251.605 253.312 255.744 4.437 6.656 5.035 9.003 5.035 20.139 0 6.955-0.896 14.336-1.963 16.384-4.962 8.694-11.588 15.892-19.498 21.364l-0.214 0.14c-7.125 4.693-9.259 5.248-20.992 5.248-11.648 0-13.909-0.555-20.608-5.035zM154.453 915.541c-40.047-7.175-73.173-31.893-91.65-65.753l-0.339-0.679c-14.421-27.605-17.365-52.48-11.392-95.616 17.49-127.141 59.701-241.611 121.735-342.594l-2.183 3.821c22.699-37.589 30.891-45.483 47.445-45.739 15.701-0.256 38.4 14.208 44.971 28.672 6.571 14.421 4.011 23.168-16.811 57.173-47.913 76.705-83.899 166.305-102.649 262.078l-0.818 5.015c-6.016 31.787-10.411 68.864-9.003 76.245 2.56 13.611 16.256 28.331 29.867 32.085 8.405 2.347 144.085 2.304 152.491-0.043 8.704-2.389 20.139-11.477 24.704-19.584 2.048-3.669 4.992-13.995 6.528-22.955 7.253-42.581 14.379-71.168 27.221-109.184 7.083-20.992 7.723-32.811 2.475-44.459-2.432-5.333-13.611-17.877-36.608-41.088-34.901-35.2-39.936-42.197-40.021-55.552-0.043-9.984 4.011-18.475 13.867-28.885 9.984-10.581 20.693-16.128 30.891-16.085 13.995 0.085 20.48 4.821 57.728 42.283 35.584 35.755 42.88 44.544 51.157 61.653 9.216 19.157 10.965 27.947 10.88 55.595l-0.043 25.6-9.856 29.867c-9.056 25.121-16.803 55.069-21.861 85.922l-0.411 3.038c-2.159 13.394-4.624 24.633-7.634 35.646l0.551-2.366c-11.195 32.702-34.287 58.847-63.989 73.776l-0.737 0.336c-25.643 12.629-24.448 12.501-116.053 12.885-45.056 0.213-85.76-0.299-90.453-1.109zM469.12 322.005c25.413-21.846 53.453-42.571 82.967-61.172l2.921-1.719c27.093-16.981 36.053-20.992 46.592-20.992 14.976 0.043 21.035 4.309 57.899 40.661 36.949 36.352 39.083 37.803 56.747 37.803 5.12 0 15.36-2.347 26.24-6.016 37.419-12.672 66.091-19.883 104.533-26.283 12.501-2.091 22.827-4.864 27.221-7.296 8.576-4.736 17.579-16.128 20.096-25.344 1.195-4.437 1.621-31.787 1.323-79.701-0.512-71.040-0.597-73.131-4.181-79.787-7.979-14.72-21.589-23.296-37.163-23.381-18.133-0.085-79.957 10.581-117.035 20.181-110.017 29.214-206.098 77.225-289.558 140.931l1.985-1.454c-22.272 16.853-52.053 41.685-52.053 43.477 0 1.152 58.325 60.032 59.477 60.032 0.384 0 5.76-4.48 11.989-9.941z" />
<glyph unicode="&#xe92a;" glyph-name="phone-outgoing" d="M708.864 957.568c-10.112-3.2-17.152-8.704-21.547-16.896-3.157-5.931-3.797-9.856-3.797-23.339 0-14.123 0.555-17.195 4.267-23.808 4.693-8.405 12.544-14.507 21.973-17.109 3.755-1.067 38.187-1.749 87.211-1.749h81.067l-116.309-116.48c-81.536-81.664-117.376-118.741-120.064-124.032-7.509-15.061-3.712-30.592 11.093-45.397s30.336-18.603 45.397-11.093c5.291 2.688 42.368 38.528 124.032 120.064l116.48 116.309v-81.067c0-49.024 0.683-83.456 1.749-87.211 4.565-16.427 16.896-25.472 36.48-26.709 20.693-1.323 34.261 4.651 41.984 18.475l4.267 7.595 0.469 142.549 0.469 142.507-4.736 9.344c-2.783 6.189-7.326 11.172-12.99 14.426l-0.152 0.080-8.405 5.12-140.928 0.341c-112.171 0.256-142.379-0.128-148.011-1.92zM154.453 915.541c-40.047-7.175-73.173-31.893-91.65-65.753l-0.339-0.679c-15.104-28.971-17.664-54.229-10.496-103.296 17.28-118.443 54.443-224.725 113.28-324.267 70.101-118.571 161.92-216.661 270.635-289.195 93.483-62.421 182.699-102.613 283.477-127.872 51.285-12.843 109.611-22.4 136.619-22.4 46.336 0 91.904 29.312 112.469 72.32 12.117 25.344 12.032 24.576 12.032 121.387 0 86.485-0.043 87.125-4.011 99.84-12.8 41.003-43.136 72.619-82.475 85.931-7.67 2.224-17.467 4.393-27.446 6.019l-1.568 0.211c-40.704 6.784-53.461 9.984-96.981 24.277-24.533 8.064-27.947 8.747-47.019 9.472-17.323 0.64-22.955 0.171-35.84-3.029-27.563-6.912-42.027-15.872-71.040-43.989l-20.011-19.456-8.192 5.547c-40.875 27.691-66.56 48.768-99.541 81.749-26.051 25.519-49.606 53.381-70.392 83.311l-1.245 1.894-15.744 22.443 19.499 20.053c20.736 21.376 28.245 31.147 35.584 46.293 9.216 19.157 10.965 27.947 10.88 55.595l-0.043 25.6-9.856 29.867c-9.056 25.121-16.803 55.069-21.861 85.922l-0.411 3.038c-2.159 13.394-4.624 24.633-7.634 35.646l0.551-2.366c-11.195 32.702-34.287 58.847-63.989 73.776l-0.737 0.336c-25.643 12.629-24.448 12.501-116.053 12.885-45.056 0.213-85.76-0.299-90.453-1.109zM316.117 830.208c8.704-2.389 20.139-11.477 24.704-19.584 2.048-3.669 4.992-13.995 6.528-22.955 7.253-42.581 14.379-71.168 27.221-109.184 7.083-20.949 7.723-32.811 2.475-44.459-2.389-5.333-13.312-17.621-35.627-40.107-18.688-18.859-33.621-35.413-35.712-39.595-4.992-9.899-4.779-22.699 0.512-34.091 4.821-10.283 25.813-44.16 38.613-62.208 52.13-73.049 114.913-134.556 186.814-183.704l2.541-1.64c41.173-27.52 54.912-34.56 67.413-34.56 14.976 0.043 21.035 4.309 57.899 40.661 36.949 36.352 39.083 37.803 56.747 37.803 5.12 0 15.36-2.347 26.24-6.016 37.419-12.672 66.091-19.883 104.533-26.283 12.501-2.091 22.827-4.864 27.221-7.296 8.405-4.651 17.493-16 19.968-24.875 2.219-7.979 2.347-143.531 0.171-153.003-3.627-15.488-19.883-29.781-35.669-31.275-15.701-1.536-80.341 9.173-123.136 20.352-175.36 45.824-334.549 151.851-441.387 294.101-77.013 102.485-127.445 214.827-150.613 335.36-6.741 34.944-11.307 72.661-9.813 80.512 1.365 7.339 10.24 21.077 16.512 25.685 10.453 7.68 14.123 7.979 88.661 8.064 43.776 0.043 73.259-0.597 77.184-1.707z" />
<glyph unicode="&#xe92b;" glyph-name="pie-chart" d="M497.024 915.797c-9.779-2.916-17.788-9.205-22.855-17.49l-0.099-0.174-3.883-7.253v-459.093l4.267-7.595c4.693-8.405 12.544-14.507 21.973-17.109 8.491-2.389 449.323-2.389 457.813 0 9.389 2.569 17.056 8.636 21.668 16.68l0.092 0.173c5.333 9.6 6.485 29.184 3.755 61.952-7.893 93.267-41.826 177.339-94.413 246.448l0.845-1.157c-19.371 25.941-64.981 71.552-90.88 90.795-68.096 50.645-140.501 80.299-222.592 91.221-22.955 3.029-68.011 4.608-75.691 2.603zM327.339 879.104c-15.957-5.632-51.584-24.661-73.899-39.467-57.149-38.759-104.401-87.603-140.216-144.384l-1.181-2.006c-43.441-69.839-69.194-154.6-69.194-245.377 0-42.393 5.616-83.474 16.146-122.539l-0.754 3.287c17.925-66.588 48.039-124.569 88.080-174.207l-0.699 0.895c18.133-22.741 55.68-59.776 78.592-77.525 78.439-61.584 178.585-98.765 287.414-98.765 41.649 0 82.025 5.445 120.457 15.663l-3.264-0.738c81.118 21.123 151.014 61.276 207.244 115.505l-0.14-0.135c37.274 35.562 68.593 76.943 92.588 122.764l1.236 2.591c19.072 37.461 22.443 51.456 15.872 65.92-5.803 12.8-26.752 24.619-44.075 24.875-18.389 0.256-26.027-6.613-40.235-36.181-23.936-49.792-47.232-82.261-85.12-118.741-42.923-41.344-90.581-69.547-149.248-88.405-119.125-38.272-251.093-14.208-351.488 64.085-22.907 18.706-43.298 38.732-61.735 60.466l-0.558 0.675c-57.429 71.765-88.661 165.76-84.48 254.293 4.309 91.477 35.669 170.795 94.592 239.275 31.317 36.437 70.699 66.389 122.453 93.141 24.747 12.843 29.44 15.915 33.92 22.272 7.211 10.283 7.339 25.429 0.384 40.405-11.392 24.491-27.392 31.275-52.693 22.357zM592.597 823.339c96.427-19.797 185.771-81.536 241.963-167.125 28.459-43.392 52.565-108.587 57.429-155.349l1.067-10.197h-338.389v338.389l10.197-1.067c5.589-0.555 18.048-2.645 27.733-4.651z" />
<glyph unicode="&#xe92c;" glyph-name="play" d="M196.864 872.235c-9.351-2.542-16.968-8.642-21.456-16.719l-0.090-0.177-3.797-7.125-0.427-395.051c-0.512-441.259-1.579-403.755 11.819-418.944 12.587-14.293 28.032-18.304 43.52-11.264 11.819 5.333 608.341 389.547 614.656 395.819 12.288 12.288 17.365 32.64 11.349 45.312-2.541 4.435-5.514 8.25-8.949 11.594l-0.011 0.011c-8.107 7.765-608.299 393.515-617.131 396.629-4.369 1.364-9.393 2.15-14.601 2.15-5.311 0-10.43-0.817-15.24-2.333l0.359 0.098zM498.091 598.187c127.787-82.133 232.32-149.717 232.32-150.187 0.043-0.683-463.104-299.264-472.021-304.299-2.048-1.152-2.389 41.899-2.389 304.384v305.749l242.091-155.648z" />
<glyph unicode="&#xe92d;" glyph-name="play-circle" d="M481.28 916.352l-23.893-2.56c-80.555-8.533-159.104-40.107-228.693-91.819-25.984-19.328-71.509-64.853-91.051-90.965-106.581-142.805-124.8-327.040-48.171-486.955 23.296-48.555 50.304-86.229 91.349-127.232 41.003-41.045 78.677-68.053 127.232-91.349 159.872-76.629 344.235-58.325 487.125 48.341 25.984 19.371 71.637 65.024 91.008 91.008 126.891 170.027 126.891 396.331 0 566.357-19.371 25.941-64.981 71.552-90.88 90.795-68.053 50.603-139.733 80-222.592 91.264-18.048 2.475-78.891 4.523-91.435 3.115zM568.32 827.691c109.355-16.512 204.971-78.080 266.24-171.477 12.928-19.755 31.701-57.984 39.765-81.067 14.763-42.368 20.693-78.72 20.693-127.147 0-63.701-10.965-111.829-38.272-168.107-30.080-62.037-75.477-113.792-134.528-153.259-33.664-22.528-87.509-45.056-128.811-53.973-24.244-5.414-52.089-8.515-80.658-8.515-91.486 0-175.543 31.805-241.717 84.962l0.754-0.586c-64.555 51.712-112.981 127.573-132.395 207.317-7.936 32.555-10.411 54.272-10.411 92.16 0 63.701 10.965 111.829 38.272 168.107 45.622 92.339 124.633 162.383 220.876 195.211l2.698 0.799c30.080 9.941 54.272 14.848 93.013 18.859 13.739 1.408 67.029-0.64 84.48-3.285zM410.197 658.901c-9.351-2.542-16.968-8.642-21.456-16.719l-0.090-0.177-3.797-7.125-0.469-181.675c-0.512-203.349-1.237-190.805 11.861-205.653 12.501-14.251 28.032-18.304 43.349-11.349 3.797 1.707 66.816 43.051 139.947 91.861 138.453 92.331 138.069 92.075 144.853 108.373 2.944 7.083 3.456 19.413 1.067 25.771-2.055 4.054-4.471 7.546-7.29 10.666l0.037-0.042c-6.741 7.68-268.288 182.571-278.315 186.112-4.422 1.389-9.506 2.189-14.778 2.189-5.323 0-10.456-0.816-15.279-2.329l0.361 0.098zM541.44 490.923c34.475-22.955 62.72-42.283 62.72-42.923 0-0.853-92.971-63.573-130.133-87.808l-4.693-3.029v181.675l4.693-3.029 67.413-44.885z" />
<glyph unicode="&#xe92e;" glyph-name="plus" d="M495.531 786.901c-9.351-2.542-16.968-8.642-21.456-16.719l-0.090-0.177-3.797-7.125-0.939-272.213h-131.968c-141.056 0-140.971 0-152.875-8.491-9.472-6.741-12.885-15.744-12.885-34.176 0-14.123 0.555-17.195 4.267-23.808 4.693-8.405 12.544-14.507 21.973-17.109 3.883-1.109 55.253-1.749 138.88-1.749h132.693v-132.693c0-83.627 0.64-134.997 1.749-138.88 4.565-16.427 16.896-25.472 36.48-26.709 20.693-1.323 34.261 4.651 41.984 18.475l4.267 7.595 0.939 272.213h132.651c83.584 0 134.955 0.64 138.837 1.749 9.493 2.619 17.237 8.778 21.88 16.932l0.093 0.177c3.712 6.656 4.267 9.643 4.224 23.808-0.043 18.475-3.456 27.52-12.843 34.176-11.904 8.491-11.819 8.491-152.875 8.491h-131.968l-0.939 272.213-3.797 7.125c-2.391 4.254-5.427 7.848-9.021 10.784l-0.067 0.053c-11.264 8.064-30.763 10.624-45.397 6.059z" />
<glyph unicode="&#xe92f;" glyph-name="plus-circle" d="M481.28 916.352l-23.893-2.56c-80.555-8.533-159.104-40.107-228.693-91.819-25.984-19.328-71.509-64.853-91.051-90.965-106.581-142.805-124.8-327.040-48.171-486.955 23.296-48.555 50.304-86.229 91.349-127.232 41.003-41.045 78.677-68.053 127.232-91.349 159.872-76.629 344.235-58.325 487.125 48.341 25.984 19.371 71.637 65.024 91.008 91.008 126.891 170.027 126.891 396.331 0 566.357-19.371 25.941-64.981 71.552-90.88 90.795-68.053 50.603-139.733 80-222.592 91.264-18.048 2.475-78.891 4.523-91.435 3.115zM568.32 827.691c109.355-16.512 204.971-78.080 266.24-171.477 12.928-19.755 31.701-57.984 39.765-81.067 14.763-42.368 20.693-78.72 20.693-127.147 0-63.701-10.965-111.829-38.272-168.107-30.080-62.037-75.477-113.792-134.528-153.259-33.664-22.528-87.509-45.056-128.811-53.973-24.244-5.414-52.089-8.515-80.658-8.515-91.486 0-175.543 31.805-241.717 84.962l0.754-0.586c-64.555 51.712-112.981 127.573-132.395 207.317-7.936 32.555-10.411 54.272-10.411 92.16 0 63.701 10.965 111.829 38.272 168.107 45.622 92.339 124.633 162.383 220.876 195.211l2.698 0.799c30.080 9.941 54.272 14.848 93.013 18.859 13.739 1.408 67.029-0.64 84.48-3.285zM495.531 658.901c-9.351-2.542-16.968-8.642-21.456-16.719l-0.090-0.177c-3.712-6.997-3.797-8.405-4.309-79.232l-0.469-72.107h-67.925c-72.32 0-77.696-0.512-88.875-8.491-9.472-6.741-12.885-15.744-12.885-34.176 0-14.123 0.555-17.195 4.267-23.808 4.693-8.405 12.544-14.507 21.973-17.109 3.669-1.024 34.133-1.749 74.88-1.749h68.693v-68.693c0-40.747 0.725-71.211 1.749-74.88 4.565-16.427 16.896-25.472 36.48-26.709 20.693-1.323 34.261 4.651 41.984 18.475l4.267 7.595 1.024 144.213h68.608c40.704 0 71.125 0.725 74.795 1.749 9.493 2.619 17.237 8.778 21.88 16.932l0.093 0.177c3.712 6.656 4.267 9.643 4.224 23.808-0.043 18.475-3.456 27.52-12.843 34.176-11.179 7.979-16.555 8.491-88.832 8.491h-67.925l-0.512 72.107c-0.512 70.784-0.597 72.235-4.309 79.232-2.391 4.254-5.427 7.848-9.021 10.784l-0.067 0.053c-11.264 8.064-30.763 10.624-45.397 6.059z" />
<glyph unicode="&#xe930;" glyph-name="plus-square" d="M191.957 872.832c-47.744-8.064-86.955-42.88-101.76-90.325l-4.011-12.8v-643.413l4.011-12.8c13.117-41.864 45.432-74.179 86.363-87.043l0.933-0.253 12.8-4.011h643.413l12.8 4.011c41.864 13.117 74.179 45.432 87.043 86.363l0.253 0.933 4.011 12.8v643.413l-4.011 12.8c-13.049 41.546-44.977 73.67-85.467 86.737l-0.933 0.26-13.696 4.309-316.587 0.256c-174.123 0.128-320.469-0.427-325.163-1.237zM823.893 786.731c11.904-3.541 23.296-14.933 26.837-26.837 2.304-7.68 2.603-45.44 2.603-311.936 0-251.989-0.384-304.512-2.347-310.997-3.329-10.637-10.321-19.306-19.468-24.721l-0.202-0.111-7.851-4.608h-622.933l-7.851 4.608c-4.793 2.951-8.888 6.476-12.356 10.551l-0.060 0.073c-10.197 13.397-9.6-7.339-9.6 324.309 0 267.264 0.299 305.152 2.603 312.832 3.371 11.477 14.976 23.339 26.112 26.752 12.416 3.797 611.669 3.925 624.512 0.085zM495.531 658.901c-9.351-2.542-16.968-8.642-21.456-16.719l-0.090-0.177c-3.712-6.997-3.797-8.405-4.309-79.232l-0.469-72.107h-67.925c-72.32 0-77.696-0.512-88.875-8.491-9.472-6.741-12.885-15.744-12.885-34.176 0-14.123 0.555-17.195 4.267-23.808 4.693-8.405 12.544-14.507 21.973-17.109 3.669-1.024 34.133-1.749 74.88-1.749h68.693v-68.693c0-40.747 0.725-71.211 1.749-74.88 4.565-16.427 16.896-25.472 36.48-26.709 20.693-1.323 34.261 4.651 41.984 18.475l4.267 7.595 1.024 144.213h68.608c40.704 0 71.125 0.725 74.795 1.749 9.493 2.619 17.237 8.778 21.88 16.932l0.093 0.177c3.712 6.656 4.267 9.643 4.224 23.808-0.043 18.475-3.456 27.52-12.843 34.176-11.179 7.979-16.555 8.491-88.832 8.491h-67.925l-0.512 72.107c-0.512 70.784-0.597 72.235-4.309 79.232-2.391 4.254-5.427 7.848-9.021 10.784l-0.067 0.053c-11.264 8.064-30.763 10.624-45.397 6.059z" />
<glyph unicode="&#xe931;" glyph-name="pocket" d="M149.291 872.832c-47.275-7.979-85.845-41.899-101.76-89.472l-3.968-11.947-0.555-148.48c-0.341-97.237 0.128-156.373 1.323-171.307 7.168-87.595 39.296-171.563 93.312-243.968 19.627-26.24 65.109-71.723 91.349-91.349 55.897-42.522 123.155-73.162 196.384-86.844l2.912-0.452c129.877-23.381 259.968 7.637 366.891 87.467 25.984 19.371 71.637 65.024 91.008 91.008 54.357 72.832 86.229 156.245 93.44 244.779 1.323 16.299 1.792 70.912 1.408 171.52l-0.597 147.627-3.968 11.947c-14.037 41.856-45.44 73.173-86.4 86.144l-13.696 4.309-359.253 0.256c-197.589 0.128-363.136-0.427-367.829-1.237zM866.56 786.731c6.542-2.064 12.108-5.646 16.491-10.346l0.021-0.022c13.781-13.739 13.184-5.632 12.501-175.104-0.683-162.091-0.597-160.171-10.965-202.752-18.171-71.321-54.204-132.585-103.086-180.868l-0.039-0.038c-28.253-28.409-61.18-52.133-97.538-69.927l-2.132-0.942c-49.501-25.211-107.955-39.982-169.858-39.982-62.539 0-121.558 15.076-173.619 41.792l2.144-0.999c-39.936 20.181-68.267 40.491-98.773 70.827-48.476 48.211-84.208 109.187-101.732 177.463l-0.582 2.675c-10.368 42.581-10.283 40.661-10.965 202.752-0.683 169.515-1.28 161.365 12.501 175.147 4.278 4.507 9.567 8.011 15.507 10.152l0.28 0.088c6.827 2.091 57.899 2.475 354.56 2.56 305.536 0.128 347.605-0.171 355.285-2.475zM325.376 574.080c-8.789-4.651-20.48-16.555-25.088-25.557-2.298-4.452-3.645-9.717-3.645-15.297 0-5.613 1.363-10.907 3.777-15.57l-0.089 0.189c5.333-10.624 185.557-190.848 196.181-196.181 4.509-2.32 9.84-3.68 15.488-3.68s10.979 1.36 15.682 3.77l-0.194-0.090c10.624 5.333 190.848 185.557 196.181 196.181 7.509 15.061 3.712 30.635-11.093 45.397-14.507 14.507-30.763 18.389-45.781 10.88-4.651-2.347-33.067-29.44-80.981-77.184l-73.813-73.6-73.813 73.6c-47.915 47.744-76.331 74.837-80.981 77.184-4.653 2.21-10.11 3.501-15.869 3.501-5.794 0-11.283-1.307-16.189-3.641l0.228 0.098z" />
<glyph unicode="&#xe932;" glyph-name="power" d="M495.531 914.901c-9.351-2.542-16.968-8.642-21.456-16.719l-0.090-0.177-3.797-7.125-0.469-225.877c-0.299-148.437 0.171-228.053 1.28-232.277 4.48-16.597 16.853-25.728 36.565-27.008 20.693-1.323 34.261 4.651 41.984 18.475l4.267 7.595v459.093l-3.797 7.125c-2.391 4.254-5.427 7.848-9.021 10.784l-0.067 0.053c-11.264 8.064-30.763 10.624-45.397 6.059zM223.872 717.227c-8.021-4.096-27.179-23.253-44.459-44.501-45.44-55.808-78.165-130.56-89.899-205.184-3.797-24.064-5.12-77.269-2.56-102.315 8.107-80.256 36.736-153.557 85.248-218.368 16.384-21.931 59.179-64.683 81.408-81.365 55.34-41.718 122.311-71.055 195.201-82.615l2.517-0.329c26.709-4.181 93.056-4.181 120.405 0.085 76.629 11.819 147.371 42.368 205.653 88.789 105.429 83.968 165.803 214.869 160.683 348.416-0.843 31.597-5.322 61.765-13.034 90.611l0.618-2.718c-17.877 72.661-55.552 140.928-106.325 192.896-15.232 15.573-23.808 20.437-35.968 20.437-10.709 0-19.883-4.437-29.909-14.464-14.549-14.549-18.603-30.464-11.349-44.672 1.92-3.755 9.771-13.696 17.493-22.059 55.595-60.459 85.419-128.384 92.245-210.091 0.52-7.174 0.817-15.543 0.817-23.981 0-39.219-6.404-76.942-18.223-112.181l0.724 2.487c-47.061-138.368-177.579-232.192-322.901-232.107-0.035 0-0.076 0-0.117 0-119.22 0-224.189 61.015-285.384 153.521l-0.792 1.273c-14.506 22.825-27.357 49.087-37.203 76.773l-0.855 2.758c-10.939 31.872-17.255 68.596-17.255 106.794 0 53.969 12.607 104.994 35.038 150.29l-0.887-1.98c15.787 32.811 31.957 56.405 58.709 85.717 8.107 8.917 16.299 19.328 18.133 23.168 6.955 14.336 3.029 29.44-11.435 43.947-14.933 14.891-31.147 18.731-46.336 10.965z" />
<glyph unicode="&#xe933;" glyph-name="printer" d="M239.531 914.901c-9.351-2.542-16.968-8.642-21.456-16.719l-0.090-0.177-3.797-7.125-0.469-135.893-0.469-135.936-32.811-0.811c-28.245-0.725-34.688-1.408-46.507-4.949-41.461-13.147-73.432-45.245-86.15-85.857l-0.25-0.927-4.011-12.8v-259.413l4.011-12.8c13.087-41.568 45.014-73.72 85.507-86.863l0.936-0.263c10.197-3.243 16.896-3.925 45.568-4.608l33.664-0.811 0.469-71.936 0.512-71.893 4.267-7.595c4.693-8.405 12.544-14.507 21.973-17.109 8.491-2.389 534.656-2.389 543.147 0 9.493 2.619 17.237 8.778 21.88 16.932l0.093 0.177 4.267 7.595 0.512 71.893 0.512 71.936 33.621 0.811c28.672 0.683 35.371 1.365 45.568 4.608 41.428 13.405 73.355 45.557 86.187 86.189l0.255 0.937 4.011 12.8v259.413l-4.011 12.8c-12.968 41.539-44.939 73.637-85.473 86.529l-0.927 0.255c-11.819 3.541-18.261 4.224-46.507 4.949l-32.811 0.811-0.469 135.936-0.469 135.893-3.797 7.125c-4.523 8.405-11.477 13.739-22.187 16.981-11.264 3.371-533.461 3.285-544.299-0.085zM725.333 725.333v-106.667h-426.667v213.333h426.667v-106.667zM866.56 530.731c11.904-3.541 23.296-14.933 26.837-26.837 3.669-12.331 3.925-226.816 0.256-238.933-3.329-10.637-10.321-19.306-19.468-24.721l-0.202-0.111c-7.509-4.395-9.045-4.651-35.499-5.163l-27.648-0.597-0.512 72.277c-0.512 70.955-0.597 72.363-4.309 79.36-4.523 8.405-11.477 13.739-22.187 16.981-11.648 3.499-532.011 3.499-543.659 0-10.709-3.243-17.664-8.576-22.187-16.981-3.712-6.997-3.797-8.405-4.309-79.36l-0.469-72.277-27.691 0.597c-26.453 0.512-27.989 0.768-35.499 5.163-9.034 5.384-15.9 13.602-19.443 23.41l-0.099 0.312c-3.755 10.752-3.669 227.243 0.128 240.043 3.371 11.477 14.976 23.339 26.112 26.752 6.827 2.091 57.899 2.475 354.56 2.56 305.536 0.128 347.605-0.171 355.285-2.475zM725.333 192v-128h-426.667v256h426.667v-128z" />
<glyph unicode="&#xe934;" glyph-name="radio" d="M194.432 790.229c-15.872-8.277-56.277-55.211-80.811-93.909-31.701-50.005-56.235-117.077-66.176-180.907-5.376-34.517-5.376-100.309 0-134.827 9.941-63.829 34.475-130.901 66.176-180.907 24.917-39.253 66.517-87.339 81.792-94.549 15.232-7.168 30.635-3.2 45.013 11.563 10.411 10.667 14.507 19.243 14.507 30.080 0 11.221-3.157 16.768-19.968 35.371-31.445 34.773-49.365 60.501-66.901 96.043-27.52 55.808-39.040 105.856-39.040 169.813s11.52 114.005 39.040 169.813c17.536 35.541 35.456 61.269 66.901 96.043 16.811 18.603 19.968 24.149 19.968 35.371 0 10.965-4.352 20.011-14.677 30.379-14.848 14.891-30.592 18.56-45.824 10.624zM799.147 791.083c-8.917-4.053-22.443-17.323-26.923-26.496-4.139-8.491-4.224-21.845-0.128-29.611 1.621-3.115 9.259-12.629 16.939-21.12 31.445-34.773 49.365-60.544 66.859-96.043 23.253-47.147 34.688-89.6 38.741-143.701 0.58-7.907 0.911-17.129 0.911-26.429 0-77.963-23.252-150.495-63.199-211.040l0.891 1.437c-12.501-19.115-21.76-30.805-44.117-55.68-16.725-18.603-20.011-24.405-20.139-35.627-0.128-10.88 4.224-19.797 14.763-30.379 14.507-14.549 29.739-18.347 44.885-11.221 4.992 2.347 13.952 10.197 25.6 22.4 64.768 68.096 107.179 155.776 122.325 253.013 5.376 34.517 5.376 100.309 0 134.827-15.104 96.853-57.301 184.405-121.685 252.331-24.789 26.155-37.632 31.573-55.723 23.339zM322.816 673.067c-10.112-2.987-18.432-9.515-33.024-25.899-95.531-107.307-101.803-266.88-14.976-380.032 14.379-18.731 32.128-36.565 40.789-40.96 14.976-7.595 30.592-3.84 45.397 11.008 14.507 14.464 18.603 30.507 11.435 44.544-4.899 7.645-10.072 14.296-15.783 20.44l0.081-0.088c-43.093 48.043-62.933 106.709-56.448 167.253 5.12 48.213 22.827 87.637 55.637 123.819 14.72 16.256 19.84 25.771 19.84 36.821 0 23.851-31.531 49.493-52.949 43.093zM676.949 669.653c-15.744-8.277-28.8-26.795-28.8-40.747 0-10.581 4.352-18.56 19.115-34.987 43.093-48.043 62.891-106.667 56.491-167.253-5.12-48.128-23.296-88.277-56.192-124.373-19.712-21.632-23.68-34.901-15.36-51.541 5.632-11.307 19.925-23.808 31.317-27.392 16.768-5.291 28.587 0.64 50.688 25.472 37.566 42.135 63.699 95.227 73.073 153.911l0.229 1.737c1.195 7.509 2.176 27.093 2.176 43.52 0 30.507-1.792 46.677-7.808 70.827-8.416 32.355-20.593 60.743-36.347 86.721l0.805-1.43c-16.512 26.923-44.715 58.965-57.557 65.493-4.672 2.264-10.161 3.588-15.96 3.588-5.763 0-11.222-1.308-16.094-3.642l0.224 0.097zM490.624 574.293c-48.641-8.886-87.339-43.815-101.514-89.531l-0.246-0.922c-5.76-18.517-5.76-53.163 0-71.68 13.117-41.864 45.432-74.179 86.363-87.043l0.933-0.253c18.517-5.76 53.163-5.76 71.68 0 41.864 13.117 74.179 45.432 87.043 86.363l0.253 0.933c5.76 18.517 5.76 53.163 0 71.68-13.013 41.856-45.909 74.795-86.4 86.656-15.403 4.523-43.904 6.357-58.112 3.797zM525.227 488.064c16.128-4.779 29.44-22.912 29.44-40.107 0-14.080-9.216-29.653-22.016-37.163-6.656-3.883-9.813-4.608-20.651-4.608s-13.995 0.725-20.651 4.608c-24.789 14.592-29.141 46.848-9.045 66.944 11.904 11.904 26.112 15.317 42.923 10.325z" />
</font>
</defs>
</svg>
